Схватка / The Grey (2012) BDRip 1080p

Reply to topic
DL-List and Torrent activity
Size:  4.37 GB   |    Registered:  2 years 10 months   |    Completed:  0 times
Seeders:  35  [  0 KB/s  ]   Leechers:  2  [  0 KB/s  ]   Show peers in full details
 
   
 
 
Author Message

admin ®

Gender: Male

Longevity: 2 years 11 months

Posts: 10017

Post 07-Nov-2017 22:33

[Quote]

Информация о фильме
Название: Схватка
Оригинальное название: The Grey
Год выхода: 2012
Жанр: боевик, триллер, драма, приключения
Режиссер: Джо Карнахан
В ролях: Лиам Нисон, Фрэнк Грилло, Дермот Малруни, Даллас Робертс, Джо Андерсон, Нонсо Анози, Джеймс Бэдж Дэйл, Бен Брэй, Энн Опеншоу, Питер Гиргес
О фильме: На Аляске потерпел крушение самолет, и оставшиеся в живых пассажиры оказались в плену безлюдной снежной пустыни, где только стая волков скрашивает пейзаж. Люди хотят выжить любой ценой, и теперь им предстоит смертельная схватка…

Выпущено: 1984 Private Defense Contractors
Продолжительность: 01:57:06
Перевод: Дублированный
Файл
Кодек: x264
Качество: BDRip (источник: Blu-ray Disc)
Видео: 1920x816 (2,35:1), 23.976 fps, 4896 kbps
Звук: 48 kHz, AC-3, 6 ch, 448 kbps

Скриншоты

MI

Общее
Уникальный идентификатор : 209787624346858630139325606620077386807 (0x9DD3A073F15EFBEBB6ED6F85D9466C37)
Полное имя : The.Grey.2012.BDRip.1080p.Rus.mkv
Формат : Matroska
Версия формата : Version 2
Размер файла : 4,37 Гбайт
Продолжительность : 1 ч. 57 м.
Общий поток : 5344 Кбит/сек
Название фильма : Схватка / The Grey (2012)
Дата кодирования : UTC 2012-03-07 21:15:42
Программа кодирования : mkvmerge v4.0.0 ('The Stars were mine') сборка от Jun 6 2010 16:18:42
Библиотека кодирования : libebml v1.0.0 + libmatroska v1.0.0
Видео
Идентификатор : 1
Формат : AVC
Формат/Информация : Advanced Video Codec
Профиль формата : High@L4.1
Параметр CABAC формата : Да
Параметр ReFrames формата : 5 кадров
Идентификатор кодека : V_MPEG4/ISO/AVC
Продолжительность : 1 ч. 57 м.
Битрейт : 4896 Кбит/сек
Ширина : 1920 пикселей
Высота : 816 пикселей
Соотношение сторон : 2,35:1
Частота кадров : 23,976 кадра/сек
Цветовое пространство : YUV
Субдискретизация насыщенности : 4:2:0
Битовая глубина : 8 бит
Тип развёртки : Прогрессивная
Бит/(Пиксели*Кадры) : 0.130
Размер потока : 3,92 Гбайт (90%)
Заголовок : Release by AlexKa
Библиотека кодирования : x264 core 120 r2164 da19765
Настройки программы : cabac=1 / ref=5 / deblock=1:0:0 / analyse=0x3:0x133 / me=umh / subme=10 / psy=1 / psy_rd=1.00:0.10 / mixed_ref=1 / me_range=32 / chroma_me=1 / trellis=2 / 8x8dct=1 / cqm=0 / deadzone=21,11 / fast_pskip=0 / chroma_qp_offset=-3 / threads=12 / sliced_threads=0 / nr=0 / decimate=1 / interlaced=0 / bluray_compat=0 / constrained_intra=0 / bframes=5 / b_pyramid=2 / b_adapt=2 / b_bias=0 / direct=3 / weightb=1 / open_gop=0 / weightp=2 / keyint=240 / keyint_min=24 / scenecut=40 / intra_refresh=0 / rc_lookahead=60 / rc=2pass / mbtree=1 / bitrate=4896 / ratetol=1.0 / qcomp=0.60 / qpmin=0 / qpmax=69 / qpstep=4 / cplxblur=20.0 / qblur=0.5 / ip_ratio=1.40 / aq=1:1.00
Язык : English
Аудио
Идентификатор : 2
Формат : AC-3
Формат/Информация : Audio Coding 3
Расширение режима : CM (complete main)
Идентификатор кодека : A_AC3
Продолжительность : 1 ч. 57 м.
Вид битрейта : Постоянный
Битрейт : 448 Кбит/сек
Каналы : 6 каналов
Расположение каналов : Front: L C R, Side: L R, LFE
Частота : 48,0 КГц
Битовая глубина : 16 бит
Метод сжатия : С потерями
Размер потока : 375 Мбайт (8%)
Язык : Russian
Меню
00:00:00.000 : :Chapter 01
00:07:05.299 : :Chapter 02
00:14:08.389 : :Chapter 03
00:23:39.167 : :Chapter 04
00:29:16.296 : :Chapter 05
00:35:28.042 : :Chapter 06
00:43:28.105 : :Chapter 07
00:50:58.764 : :Chapter 08
00:59:02.205 : :Chapter 09
01:11:29.410 : :Chapter 10
01:18:02.719 : :Chapter 11
01:24:14.090 : :Chapter 12
01:33:31.689 : :Chapter 13
01:38:59.016 : :Chapter 14
01:49:12.337 : :Chapter 15
01:57:05.309 : :Chapter 16
 GOLD TORRENT! DOWNLOAD TRAFFIC DOES NOT CONSIDER! 
Torrent: Registered [ 2017-11-07 22:33 ]   · 822CCB5D5D41CCA27D73805C4880667EE737BA5A

Download .torrent

Download

23 KB

Status: checked
Completed: 0 times
Size: 4.37 GB
Поделиться:
terms.php
[Profile] [PM]
Display posts:    
Reply to topic

Current time is: 26-Sep 07:41

All times are UTC + 3



You cannot post new topics in this forum
You cannot reply to topics in this forum
You cannot edit your posts in this forum
You cannot delete your posts in this forum
You cannot vote in polls in this forum
You cannot attach files in this forum
You can download files in this forum