Стыд / Shame (Стив МакКуин / Steve McQueen) [2011, Великобритания, Драма, BDRip-AVC] Dub + AVO + Sub Rus,Eng + Original Eng

Reply to topic
DL-List and Torrent activity
Size:  3.28 GB   |    Registered:  3 months 21 day   |    Completed:  0 times

Seeder not seen: Never

 
   
 
 
Author Message

admin ®

Gender: Male

Longevity: 3 years

Posts: 10019

Post 05-Oct-2017 04:21

[Quote]

СтыдShame
Страна: Великобритания
Жанр: Драма
Год выпуска: 2011
Продолжительность: 01:41:08
Перевод: Профессиональный (дублированный) [Лицензия Blu-ray RUS]
Перевод 2: Авторский (одноголосый закадровый) [Ю.Сербин]
Субтитры: русские,английские
Оригинальная аудиодорожка: английский
Режиссер: Стив МакКуин / Steve McQueen
В ролях: Майкл Фассбендер, Кэри Маллиган, Люсиль Уолтерс, Мари-Анхе Рамирес, Джеймс Бэдж Дэйл, Николь Бехари, Алекс Манетт, Ханна Уэр, Элизабет Масуччи, Рэйчел Фаррар, Лорен Омер, Лоурен Тиррелл, Джейк Ричард Сичильяно, Роберт Монтано, Шарлиз Белланте, Эми Харгривз, Анна Роуз Хопкинс, Чезз Менендес, Карл Лоу, Стэнли Мэтис, Дженнифер Винер, Бриана Марин, Стефан Николи, Барбара Линн Беланжер и др.
Описание: Брэндон — 30-летний житель Нью-Йорка, страдающий от неспособности контролировать свою сексуальную жизнь. Эротоман и сексоголик, он вечный завсегдатай ночных клубов, стрип-баров и секс-чатов. Он удивительно удачливый соблазнитель, перед его сексуальными чарами не может устоять ни одна девушка. Мир Брэндона переворачивается с ног на голову, когда к нему приезжает родная сестра Сисси.
Доп. информация:
Релиз группы:
Качество видео: BDRip-AVC |Стыд / Shame (2011) 1080p BD-Remux| HD club
Формат видео: MKV
Видео: 1118x474 (2,35:1), 23.976 fps, 3296 Кbps, 0.259 bit/pixe
Аудио: 48 kHz, AC3 Dolby Digital, 3/2 (L,C,R,l,r) + LFE ch, 448.00 kbps | DUB
Аудио 2: 48 kHz, AC3 Dolby Digital, 3/2 (L,C,R,l,r) + LFE ch, 448.00 kbps | AVO
Аудио 3: 48 kHz, AC3 Dolby Digital, 3/2 (L,C,R,l,r) + LFE ch, 448.00 kbps | ENG

MediaInfo

General
Unique ID : 197908078762259273826598136402751943287 (0x94E3B5A29B6E7927BEE4A76C198A7277)
Complete name : E:\Мои рипы\Стыд\Стыд by_IVAN@190282.mkv
Format : Matroska
Format version : Version 4 / Version 2
File size : 2.96 GiB
Duration : 1h 41mn
Overall bit rate : 4 190 Kbps
Encoded date : UTC 2014-10-27 17:10:05
Writing application : mkvmerge v7.0.0 ('Where We Going') 64bit built on Jun 9 2014 15:16:27
Writing library : libebml v1.3.0 + libmatroska v1.4.1
DURATION : 01:40:14.883000000
NUMBER_OF_FRAMES : 1036
NUMBER_OF_BYTES : 26750
_STATISTICS_WRITING_APP : mkvmerge v7.0.0 ('Where We Going') 64bit built on Jun 9 2014 15:16:27
_STATISTICS_WRITING_DATE_UTC : 2014-10-27 17:10:05
_STATISTICS_TAGS : BPS DURATION NUMBER_OF_FRAMES NUMBER_OF_BYTES
Video
ID : 1
Format : AVC
Format/Info : Advanced Video Codec
Format profile : High@L4.1
Format settings, CABAC : Yes
Format settings, ReFrames : 13 frames
Codec ID : V_MPEG4/ISO/AVC
Duration : 1h 41mn
Bit rate : 3 296 Kbps
Width : 1 118 pixels
Height : 474 pixels
Display aspect ratio : 2.35:1
Original display aspect ratio : 2.35:1
Frame rate mode : Constant
Frame rate : 23.976 fps
Color space : YUV
Chroma subsampling : 4:2:0
Bit depth : 8 bits
Scan type : Progressive
Bits/(Pixel*Frame) : 0.259
Stream size : 2.27 GiB (77%)
Writing library : x264 core 142 r2479kMod dd79a61
Encoding settings : cabac=1 / ref=13 / deblock=1:-3:-3 / analyse=0x3:0x113 / me=umh / subme=11 / psy=1 / fade_compensate=0.00 / psy_rd=1.00:0.15 / mixed_ref=1 / me_range=48 / chroma_me=1 / trellis=2 / 8x8dct=1 / cqm=0 / deadzone=21,11 / fast_pskip=0 / chroma_qp_offset=0 / threads=6 / lookahead_threads=6 / sliced_threads=0 / slices=10 / nr=0 / decimate=1 / interlaced=0 / bluray_compat=0 / constrained_intra=0 / fgo=0 / bframes=16 / b_pyramid=2 / b_adapt=2 / b_bias=0 / direct=3 / weightb=1 / open_gop=1 / weightp=2 / keyint=240 / keyint_min=23 / scenecut=40 / intra_refresh=0 / rc_lookahead=40 / rc=2pass / mbtree=0 / bitrate=3296 / ratetol=1.0 / qcomp=0.60 / qpmin=0 / qpmax=69 / qpstep=4 / cplxblur=20.0 / qblur=0.5 / vbv_maxrate=50000 / vbv_bufsize=62500 / nal_hrd=none / filler=0 / ip_ratio=1.40 / pb_ratio=1.30 / aq=1:1.00
Default : Yes
Forced : No
Color primaries : BT.709
Transfer characteristics : BT.709
Matrix coefficients : BT.709
Audio #1
ID : 2
Format : AC-3
Format/Info : Audio Coding 3
Mode extension : CM (complete main)
Format settings, Endianness : Big
Codec ID : A_AC3
Duration : 1h 41mn
Bit rate mode : Constant
Bit rate : 448 Kbps
Channel(s) : 6 channels
Channel positions : Front: L C R, Side: L R, LFE
Sampling rate : 48.0 KHz
Bit depth : 16 bits
Compression mode : Lossy
Stream size : 324 MiB (11%)
Default : Yes
Forced : No
Audio #2
ID : 3
Format : AC-3
Format/Info : Audio Coding 3
Mode extension : CM (complete main)
Format settings, Endianness : Big
Codec ID : A_AC3
Duration : 1h 41mn
Bit rate mode : Constant
Bit rate : 448 Kbps
Channel(s) : 6 channels
Channel positions : Front: L C R, Side: L R, LFE
Sampling rate : 48.0 KHz
Bit depth : 16 bits
Compression mode : Lossy
Stream size : 324 MiB (11%)
Default : No
Forced : No
Text #1
ID : 4
Format : UTF-8
Codec ID : S_TEXT/UTF8
Codec ID/Info : UTF-8 Plain Text
Default : Yes
Forced : No
Text #2
ID : 5
Format : UTF-8
Codec ID : S_TEXT/UTF8
Codec ID/Info : UTF-8 Plain Text
Default : No
Forced : No

x264 log

VIDEO ENCODING
x264 [info]: frame I:689 Avg QP:13.68 size: 77833
x264 [info]: frame P:26993 Avg QP:16.46 size: 31457
x264 [info]: frame B:117807 Avg QP:17.83 size: 13518
x264 [info]: consecutive B-frames: 1.0% 2.4% 7.7% 8.6% 11.6% 45.1% 5.8% 1.2% 1.9% 1.7% 1.9% 1.7% 2.6% 3.8% 1.5% 0.6% 1.1%
x264 [info]: kb/s:3289.66
x264 [total]: encoded 145489 frames, 2.33 fps, 3289.66 kb/s, duration 17:19:34.71

Скриншот c названием фильма

Скриншоты

Убедительная просьба пожалуйста кто скачал не бросайте раздачу!!!
 GOLD TORRENT! DOWNLOAD TRAFFIC DOES NOT CONSIDER! 
Torrent: Registered [ 2020-06-06 07:44 ]   · 7CAE54B8131BE6BDA27AB64043AF6F9E672A360B

Download .torrent

Download

17 KB

Status: checked
Completed: 0 times
Size: 3.28 GB
Поделиться:
terms.php
[Profile] [PM]
Display posts:    
Reply to topic

Current time is: 27-Sep 16:20

All times are UTC + 3



You cannot post new topics in this forum
You cannot reply to topics in this forum
You cannot edit your posts in this forum
You cannot delete your posts in this forum
You cannot vote in polls in this forum
You cannot attach files in this forum
You can download files in this forum