Войны Пентагона / The Pentagon Wars (1998) HDTVRip 720p | P2

Reply to topic
DL-List and Torrent activity [Update пиров]
Size:  4.98 GB   |    Registered:  3 years 6 months   |    Completed:  0 times
Seeders:  2  [  0 KB/s  ]   Show peers in full details
 
   
 
 
Author Message

admin ®

Gender: Male

Longevity: 3 years 7 months

Posts: 10934

Post 07-Nov-2017 10:25

[Quote]

Информация о фильме
Название: Войны Пентагона
Оригинальное название: The Pentagon Wars
Год выхода: 1998
Жанр: комедия, военный
Режиссер: Ричард Бенджамин
В ролях: Келси Грэммер, Кэри Элвис, Виола Дэвис, Джон С. МакГинли, Том Райт, Клифтон Пауэлл, Дьюи Вебер, Ричард Шифф, Дж.С. МакКинзи, Ричард Бенжамин
О фильме:
Черная комедия про внедрение боевой машины пехоты «Брэдли». Чтобы проконтролировать чрезмерные расходы Пентагона, Конгресс назначает беспристрастного полковника ВВС США Бертона оценить эффективность нескольких видов разрабатываемого оружия, в том числе БМП «Брэдли». Корыстно настроенный начальник Бертона генерал Партридж все время ставит палки в колеса. Но честные полковники легко не сдаются.

Страна: США
Продолжительность: 01:39:22
Перевод 1: Профессиональный (двухголосый закадровый) - Екатеринбург Арт
Перевод 2: Профессиональный (двухголосый закадровый) - НТВ+
Субтитры: английские
Оригинальная аудиодорожка: английский
Файл
Кодек: H.264
Качество: HDTVRip 720p
Видео: 1280x720p (16:9), 25 fps, x264, 6601 kbps
Аудио 1: Russian - ЕА (Dolby AC3, 2 ch) 192 Kbps / 48 000 Hz
Аудио 2: Russian - НТВ+ (Dolby AC3, 2 ch) 192 Kbps / 48 000 Hz
Аудио 3: English (Dolby AC3, 2 ch) 192 Kbps / 48 000 Hz
Субтитры: English--

M/I

Уникальный идентификатор : 224646605941874798146027365880614570150 (0xA9015CCEB0AE9F429311495EB8C748A6)
Полное имя : The.Pentagon.Wars.(1998).HDTVRip.720p.x264.RUS.ENG.AC3.mkv
Формат : Matroska
Версия формата : Version 4 / Version 2
Размер файла : 4,98 Гбайт
Продолжительность : 1 ч. 39 м.
Общий поток : 7182 Кбит/сек
Название фильма : The Pentagon Wars (1998) HDTVRip 720p
Дата кодирования : UTC 2015-02-01 11:21:34
Программа кодирования : mkvmerge v7.5.0 ('Glass Culture') 32bit built on Jan 4 2015 16:37:25
Библиотека кодирования : libebml v1.3.1 + libmatroska v1.4.2
DURATION : 01:39:22.176000000
NUMBER_OF_FRAMES : 186318
NUMBER_OF_BYTES : 143092224
_STATISTICS_WRITING_APP : mkvmerge v7.5.0 ('Glass Culture') 32bit built on Jan 4 2015 16:37:25
_STATISTICS_WRITING_DATE_UTC : 2015-02-01 11:21:34
_STATISTICS_TAGS : BPS DURATION NUMBER_OF_FRAMES NUMBER_OF_BYTES
Видео
Идентификатор : 1
Формат : AVC
Формат/Информация : Advanced Video Codec
Профиль формата : High@L4.1
Параметр CABAC формата : Да
Параметр ReFrames формата : 9 кадров
Идентификатор кодека : V_MPEG4/ISO/AVC
Продолжительность : 1 ч. 39 м.
Битрейт : 6601 Кбит/сек
Ширина : 1280 пикселей
Высота : 720 пикселей
Соотношение сторон : 16:9
Режим частоты кадров : Постоянный
Частота кадров : 25,000 кадров/сек
Цветовое пространство : YUV
Субдискретизация насыщенности : 4:2:0
Битовая глубина : 8 бит
Тип развёртки : Прогрессивная
Бит/(Пиксели*Кадры) : 0.287
Размер потока : 4,49 Гбайт (90%)
Библиотека кодирования : x264 core 142 r2431 ac76440
Настройки программы : cabac=1 / ref=9 / deblock=1:-3:-3 / analyse=0x3:0x113 / me=umh / subme=9 / psy=1 / psy_rd=1.00:0.00 / mixed_ref=1 / me_range=32 / chroma_me=1 / trellis=2 / 8x8dct=1 / cqm=0 / deadzone=21,11 / fast_pskip=0 / chroma_qp_offset=-2 / threads=6 / lookahead_threads=1 / sliced_threads=0 / nr=0 / decimate=1 / interlaced=0 / bluray_compat=0 / constrained_intra=0 / bframes=6 / b_pyramid=2 / b_adapt=2 / b_bias=0 / direct=3 / weightb=1 / open_gop=0 / weightp=2 / keyint=250 / keyint_min=24 / scenecut=40 / intra_refresh=0 / rc_lookahead=50 / rc=2pass / mbtree=0 / bitrate=6601 / ratetol=1.0 / qcomp=0.60 / qpmin=10 / qpmax=51 / qpstep=4 / cplxblur=20.0 / qblur=0.5 / vbv_maxrate=62500 / vbv_bufsize=78125 / nal_hrd=none / filler=0 / ip_ratio=1.40 / pb_ratio=1.30 / aq=1:1.00
Язык : English
Default : Да
Forced : Нет
DURATION : 01:39:22.120000000
NUMBER_OF_FRAMES : 149053
NUMBER_OF_BYTES : 4921043902
_STATISTICS_WRITING_APP : mkvmerge v7.5.0 ('Glass Culture') 32bit built on Jan 4 2015 16:37:25
_STATISTICS_WRITING_DATE_UTC : 2015-02-01 11:21:34
_STATISTICS_TAGS : BPS DURATION NUMBER_OF_FRAMES NUMBER_OF_BYTES
Аудио #1
Идентификатор : 2
Формат : AC-3
Формат/Информация : Audio Coding 3
Расширение режима : CM (complete main)
Параметр Endianness формата : Big
Идентификатор кодека : A_AC3
Продолжительность : 1 ч. 39 м.
Вид битрейта : Постоянный
Битрейт : 192 Кбит/сек
Каналы : 2 канала
Расположение каналов : Front: L R
Частота : 48,0 КГц
Битовая глубина : 16 бит
Метод сжатия : С потерями
Размер потока : 136 Мбайт (3%)
Заголовок : EA
Язык : Russian
Default : Да
Forced : Нет
Аудио #2
Идентификатор : 3
Формат : AC-3
Формат/Информация : Audio Coding 3
Расширение режима : CM (complete main)
Параметр Endianness формата : Big
Идентификатор кодека : A_AC3
Продолжительность : 1 ч. 39 м.
Вид битрейта : Постоянный
Битрейт : 192 Кбит/сек
Каналы : 2 канала
Расположение каналов : Front: L R
Частота : 48,0 КГц
Битовая глубина : 16 бит
Метод сжатия : С потерями
Размер потока : 136 Мбайт (3%)
Заголовок : НТВ+
Язык : Russian
Default : Нет
Forced : Нет
Аудио #3
Идентификатор : 4
Формат : AC-3
Формат/Информация : Audio Coding 3
Расширение режима : CM (complete main)
Параметр Endianness формата : Big
Идентификатор кодека : A_AC3
Продолжительность : 1 ч. 39 м.
Вид битрейта : Постоянный
Битрейт : 192 Кбит/сек
Каналы : 2 канала
Расположение каналов : Front: L R
Частота : 48,0 КГц
Битовая глубина : 16 бит
Метод сжатия : С потерями
Размер потока : 136 Мбайт (3%)
Заголовок : Original
Язык : English
Default : Нет
Forced : Нет
Текст
Идентификатор : 5
Формат : UTF-8
Идентификатор кодека : S_TEXT/UTF8
Идентификатор кодека/Информация : UTF-8 Plain Text
Язык : English
Default : Нет
Forced : Нет

Скриншоты

--
 GOLD TORRENT! DOWNLOAD TRAFFIC DOES NOT CONSIDER! 
Torrent: Registered [ 2017-11-07 10:25 ]   · 60F0F3EBC80CEC506060E50A84D12C25D87AC174

Download .torrent

Download

26 KB

Status: checked
Completed: 0 times
Size: 4.98 GB
Поделиться:
terms.php
[Profile] [PM]
Display posts:    
Reply to topic

Current time is: 12-May 18:31

All times are UTC + 3



You cannot post new topics in this forum
You cannot reply to topics in this forum
You cannot edit your posts in this forum
You cannot delete your posts in this forum
You cannot vote in polls in this forum
You cannot attach files in this forum
You can download files in this forum