Бассейн / La piscine (1969) BDRip 720p | D

Reply to topic
DL-List and Torrent activity
Size:  7.1 GB   |    Registered:  2 years 10 months   |    Completed:  0 times
Seeders:  4  [  0 KB/s  ]   Leechers:  1  [  0 KB/s  ]   Show peers in full details
 
   
 
 
Author Message

admin ®

Gender: Male

Longevity: 3 years

Posts: 10017

Post 06-Nov-2017 11:10

[Quote]

Информация о фильме
Название: Бассейн
Оригинальное название: La piscine
Год выпуска: 1969
Жанр: драма, мелодрама, криминал
Выпущено: Франция, Италия, SNC, Tritone Cinematografica
Продолжительность: 02:02:23
Перевод: Дублированный
Режиссер: Жак Дере
В ролях: Ален Делон, Роми Шнайдер, Морис Роне, Джейн Биркин, Поль Кроше, Стив Экхардт, Мэддли Бейми, Сюзи Жаспар, Тьерри Шабер, Стефани Фуген-О фильме:
Жан-Поль и Марианна проводят отпуск на Лазурном берегу, в идеальной атмосфере на вилле друзей. Но летняя идиллия прерывается вторжением их друга, бывшего любовника Марианны. Безмятежное состояние героев сменяется обжигающим напряжением, затаенной ревностью, гнетущими намеками и страстями. На «сцене» у бассейна наступает время трагедии с запутанной детективной интригой — ведь под мерцающей поверхностью воды найден труп гостя.-
Файл
Качество: BDRip 720p
Видео: MPEG-4 AVC, 7631 Кбит/с, 1200x720, 24.000 кадр/с
Аудио 1: Russian: 48 kHz, AC3, 6 ch, 448 kbps |DUB, Мосфильм|
Аудио 2: French: 48 kHz, AC3, 2 ch, 224 kbps |Оригинал|
Cубтитры: Русские, английские, немецкие, испанские, португальские
Навигация по главам: есть-

Скриншоты



MediaInfo

Общее
Уникальный идентификатор : 179979406794812021573791438024529832112 (0x8766C5DC3EA728C78BE0619B53CA68B0)
Полное имя : La.piscine.1969.BDRip.720p.mkv
Формат : Matroska
Версия формата : Version 4 / Version 2
Размер файла : 7,10 Гбайт
Продолжительность : 2 ч. 2 м.
Общий поток : 8306 Кбит/сек
Название фильма : La piscine (1969)
Дата кодирования : UTC 2017-06-10 09:47:28
Программа кодирования : mkvmerge v6.9.1 ('Blue Panther') 64bit built on Apr 18 2014 18:23:38
Библиотека кодирования : libebml v1.3.0 + libmatroska v1.4.1
Видео
Идентификатор : 1
Формат : AVC
Формат/Информация : Advanced Video Codec
Профиль формата : High@L4.1
Параметр CABAC формата : Да
Параметр RefFrames формата : 9 кадров
Идентификатор кодека : V_MPEG4/ISO/AVC
Продолжительность : 2 ч. 2 м.
Битрейт : 7631 Кбит/сек
Ширина : 1200 пикселей
Высота : 720 пикселей
Соотношение сторон : 5:3
Режим частоты кадров : Постоянный
Частота кадров : 24,000 кадра/сек
Цветовое пространство : YUV
Субдискретизация насыщенности : 4:2:0
Битовая глубина : 8 бит
Тип развёртки : Прогрессивная
Бит/(Пиксели*Кадры) : 0.368
Размер потока : 6,38 Гбайт (90%)
Заголовок : La piscine (1969)
Библиотека кодирования : x264 core 148 r2744 b97ae06
Настройки программы : cabac=1 / ref=9 / deblock=1:-3:-3 / analyse=0x3:0x133 / me=umh / subme=11 / psy=1 / psy_rd=1.00:0.00 / mixed_ref=1 / me_range=32 / chroma_me=1 / trellis=2 / 8x8dct=1 / cqm=0 / deadzone=21,11 / fast_pskip=1 / chroma_qp_offset=-2 / threads=6 / lookahead_threads=1 / sliced_threads=0 / nr=0 / decimate=1 / interlaced=0 / bluray_compat=0 / constrained_intra=0 / bframes=5 / b_pyramid=2 / b_adapt=2 / b_bias=0 / direct=3 / weightb=1 / open_gop=0 / weightp=2 / keyint=240 / keyint_min=24 / scenecut=40 / intra_refresh=0 / rc_lookahead=60 / rc=2pass / mbtree=1 / bitrate=7631 / ratetol=1.0 / qcomp=0.60 / qpmin=0 / qpmax=69 / qpstep=4 / cplxblur=20.0 / qblur=0.5 / vbv_maxrate=50000 / vbv_bufsize=62500 / nal_hrd=none / filler=0 / ip_ratio=1.40 / aq=1:1.00
Язык : French
Default : Да
Forced : Нет
Аудио #1
Идентификатор : 2
Формат : AC-3
Формат/Информация : Audio Coding 3
Параметр Endianness формата : Big
Идентификатор кодека : A_AC3
Продолжительность : 2 ч. 2 м.
Вид битрейта : Постоянный
Битрейт : 448 Кбит/сек
Каналы : 6 каналов
Расположение каналов : Front: L C R, Side: L R, LFE
Частота : 48,0 КГц
Частота кадров : 31,250 кадров/сек (1536 SPF)
Битовая глубина : 16 бит
Метод сжатия : С потерями
Размер потока : 392 Мбайт (5%)
Заголовок : AC3, 6 ch, 448 Kbps, Dub
Язык : Russian
Default : Да
Forced : Нет
Аудио #2
Идентификатор : 3
Формат : AC-3
Формат/Информация : Audio Coding 3
Параметр Endianness формата : Big
Идентификатор кодека : A_AC3
Продолжительность : 2 ч. 2 м.
Вид битрейта : Постоянный
Битрейт : 224 Кбит/сек
Каналы : 2 канала
Расположение каналов : Front: L R
Частота : 48,0 КГц
Частота кадров : 31,250 кадров/сек (1536 SPF)
Битовая глубина : 16 бит
Метод сжатия : С потерями
Размер потока : 196 Мбайт (3%)
Заголовок : AC3, 2 ch, 224 Kbps, Français
Язык : French
Default : Нет
Forced : Нет
Текст #1
Идентификатор : 4
Формат : UTF-8
Идентификатор кодека : S_TEXT/UTF8
Идентификатор кодека/Информация : UTF-8 Plain Text
Язык : Russian
Default : Нет
Forced : Нет
Текст #2
Идентификатор : 5
Формат : UTF-8
Идентификатор кодека : S_TEXT/UTF8
Идентификатор кодека/Информация : UTF-8 Plain Text
Язык : English
Default : Нет
Forced : Нет
Текст #3
Идентификатор : 6
Формат : UTF-8
Идентификатор кодека : S_TEXT/UTF8
Идентификатор кодека/Информация : UTF-8 Plain Text
Язык : German
Default : Нет
Forced : Нет
Текст #4
Идентификатор : 7
Формат : UTF-8
Идентификатор кодека : S_TEXT/UTF8
Идентификатор кодека/Информация : UTF-8 Plain Text
Язык : Spanish
Default : Нет
Forced : Нет
Текст #5
Идентификатор : 8
Формат : UTF-8
Идентификатор кодека : S_TEXT/UTF8
Идентификатор кодека/Информация : UTF-8 Plain Text
Язык : Portuguese
Default : Нет
Forced : Нет
Меню
00:00:00.000 : fr:00:00:00.000
00:09:09.667 : fr:00:09:09.667
00:19:30.417 : fr:00:19:30.417
00:28:24.125 : fr:00:28:24.125
00:36:32.875 : fr:00:36:32.875
00:47:29.458 : fr:00:47:29.458
00:55:23.542 : fr:00:55:23.542
01:05:27.750 : fr:01:05:27.750
01:13:59.792 : fr:01:13:59.792
01:26:03.833 : fr:01:26:03.833
01:39:58.375 : fr:01:39:58.375
01:49:55.917 : fr:01:49:55.917
 GOLD TORRENT! DOWNLOAD TRAFFIC DOES NOT CONSIDER! 
Torrent: Registered [ 2017-11-06 11:10 ]   · 2F50775A5C57A63D4FCAC12582B65B19DB7656A5

Download .torrent

Download

36 KB

Status: checked
Completed: 0 times
Size: 7.1 GB
Поделиться:
terms.php
[Profile] [PM]
Display posts:    
Reply to topic

Current time is: 28-Sep 07:39

All times are UTC + 3



You cannot post new topics in this forum
You cannot reply to topics in this forum
You cannot edit your posts in this forum
You cannot delete your posts in this forum
You cannot vote in polls in this forum
You cannot attach files in this forum
You can download files in this forum