Банды Нью-Йорка / Gangs of New York (Мартин Скорсезе / Martin Scorsese) [2002, Германия, США, Великобритания, Нидерланды, Италия, Драма, криминал, BDRip-AVC] Dub + AVO А. Гаврилов + Sub Rus, Eng + Original Eng

Reply to topic
DL-List and Torrent activity
Size:  6.61 GB   |    Registered:  3 years 1 month   |    Completed:  0 times

Seeder not seen: Never

 
   
 
 
Author Message

admin ®

Gender: Male

Longevity: 3 years 2 months

Posts: 10115

Post 04-Oct-2017 05:53

[Quote]

Банды Нью-ЙоркаGangs of New York«Америка рождалась на улицах»

Страна: Германия, США, Великобритания, Нидерланды, Италия
Жанр: Драма, криминал
Год выпуска: 2002
Продолжительность: 2:46:35
Перевод: Профессиональный (дублированный) BD
Перевод 2: Авторский (одноголосый закадровый) А.Гаврилов
Субтитры: русские,английские
Оригинальная аудиодорожка: английский
Режиссер: Мартин Скорсезе / Martin Scorsese
В ролях: Леонардо Ди Каприо, Дэниэл Дэй-Льюис, Кэмерон Диаз, Джим Бродбент, Джон С. Рейли, Генри Томас, Лайам Нисон, Брендан Глисон, Гари Льюис, Стивен Грэхэм, Эдди Марсан, Алек МакКауэн, Дэвид Хеммингз, Ларри Джиллиард мл., Кара Сеймур, Роджер Эштон-Гриффитс, Питер-Хьюго Дэйли, Cian McCormack, Эндрю Галлахер, Филип Кирк, Рэб Аффлек
Описание: Нью-Йорк, 1863 год. В диких трущобах города "американской мечты" действует только один закон - закон силы. Здесь идет в ход любое оружие, никто не считает потерь и не оплакивает погибших. В одной из жестоких стычек от рук вожака "коренных американцев" - Мясника Билла погибает предводитель банды "ирландцев" Вэллон.
Его сын Амстердам надолго попадает в исправительную школу, затаив ненависть на Мясника, ставшего хозяином окрестных кварталов. Спустя годы не узнанный никем Амстердам возвратится на родные улицы с единственной целью - отомстить убийце отца…
Доп. информация:
Релиз группы:
Сохранены оригинальные главы как на Bluray
Качество видео: BDRip-AVC | Банды Нью-Йорка / Gangs of New York(2002) 1080p BD-Remux| HD Tracker
Формат видео: MKV
Видео: 1120x476 (2:35:1), 23,976 fps, 4235 Кbps, 0.331 bit/pixe
Аудио: 48 kHz, AC3 Dolby Digital, 3/2 (L,C,R,l,r) + LFE ch, ~448.00 kbps avg DUB
Аудио 2: 48 kHz, AC3 Dolby Digital, 3/2 (L,C,R,l,r) + LFE ch, ~448.00 kbps avg AVO отдельно
Аудио 3: 48 kHz, AC3 Dolby Digital, 3/2 (L,C,R,l,r) + LFE ch, ~448.00 kbps avg ENG
Формат субтитров: softsub (SRT)
Доп. информация о субтитрах: отключаемые
Благодарность за помощь в создании рипа: Ювелиру

Кинонаграды

10 номинаций на премию «Оскар» 2003г. включая Лучший фильм. Премия «Золотой глобус», 2003г. за Лучшего режиссера (Мартин Скорсезе) и Лучшую песню — «The Hands That Built America».

Знаете ли Вы что

* Роберт Де Ниро отказался от съемок в этой картине из-за нежелания путешествовать по Европе, где снималась часть фильма, из-за его задержания в 1999 году в Париже по подозрению в международной проституции.
* На роль, которую сыграла Камерон Диаз, претендовали Клэр Форлани, Хизер Грэм, Моника Поттер, Кэти Холмс и Мина Сувари.
* Харви Вайнштайн сказал о лауреате премии Оскара Дэниэле Дэй-Льюисе, когда тот согласился присоединился к съемочной группе фильма следующее: ' Четыре года без Дэниела на экране - это слишком.'
* В период съемок Лайам Нисон попал в аварию, угодив на своем мотоцикле в оленя в пригороде Нью-Йорка.
* Во время съемок в Риме Леонардо ДиКаприо приходилось по несколько суток безвылазно сидеть в гостиничном номере, для того, чтобы толпы девушек, желающих взглянуть на своего кумира, покинули ближайшие улицы.
* Съемки картины начались 30-го августа 2000 года в Риме, где был восстановлен Нью-Йорк 19-го столетия. Первоначальный бюджет составил 90 миллионов долларов, но в итоге раздулся до 97 миллионов долларов.
* Первоначальная дата премьеры была установлена на 21 декабря 2001 года. Фактически фильм вышел лишь через год - 20 декабря 2002 года.
* Во время подготовки к своей роли Дэниэл Дэй-Льюис много времени проводил в одном из мясных магазинов Лондона.
* Для съемок фильма в Риме был построен целый квартал Нью-Йорка образца середины XIX века, а также созданы более пяти тысяч костюмов.
* В основу сюжета фильма легла знаменитая в США документальная книга Герберта Осбери «Банды Нью-Йорка» (The Gangs of New York : An Informal History of the Underworld; 1928), вышедшая на русском языке в 2004 году.

MediaInfo

General
Unique ID : 240981410864600320688216551653191730764 (0xB54B54DEA848EE868282B2B9C8C4464C)
Complete name : E:\Мои рипы\Банды Нью-Йорка\Bandiy_New-York by_IVAN@190282.mkv
Format : Matroska
Format version : Version 4 / Version 2
File size : 6.09 GiB
Duration : 2h 46mn
Overall bit rate : 5 236 Kbps
Encoded date : UTC 2016-03-07 20:20:37
Writing application : mkvmerge v8.8.0 ('Wind at my back') 64bit
Writing library : libebml v1.3.3 + libmatroska v1.4.4
Attachements : cover.jpg
DURATION : 02:36:16.867000000
NUMBER_OF_FRAMES : 1566
NUMBER_OF_BYTES : 59810
_STATISTICS_WRITING_APP : mkvmerge v8.8.0 ('Wind at my back') 64bit
_STATISTICS_WRITING_DATE_UT : 2016-03-07 20:20:37
_STATISTICS_TAGS : BPS DURATION NUMBER_OF_FRAMES NUMBER_OF_BYTES
Video
ID : 1
Format : AVC
Format/Info : Advanced Video Codec
Format profile : High@L4
Format settings, CABAC : Yes
Format settings, ReFrames : 14 frames
Codec ID : V_MPEG4/ISO/AVC
Duration : 2h 46mn
Bit rate : 4 235 Kbps
Width : 1 120 pixels
Height : 476 pixels
Display aspect ratio : 2.35:1
Frame rate mode : Constant
Frame rate : 23.976 fps
Color space : YUV
Chroma subsampling : 4:2:0
Bit depth : 8 bits
Scan type : Progressive
Bits/(Pixel*Frame) : 0.331
Stream size : 4.93 GiB (81%)
Writing library : x264 core 146 r2538kMod 121396c
Encoding settings : cabac=1 / ref=14 / deblock=1:-3:-2 / analyse=0x3:0x133 / me=umh / subme=11 / psy=1 / fade_compensate=0.00 / psy_rd=1.00:0.00 / mixed_ref=1 / me_range=48 / chroma_me=1 / trellis=2 / 8x8dct=1 / cqm=0 / deadzone=21,11 / fast_pskip=0 / chroma_qp_offset=-2 / threads=12 / lookahead_threads=3 / sliced_threads=0 / nr=0 / decimate=1 / interlaced=0 / bluray_compat=0 / constrained_intra=0 / fgo=0 / bframes=16 / b_pyramid=2 / b_adapt=2 / b_bias=0 / direct=3 / weightb=1 / open_gop=0 / weightp=2 / keyint=240 / keyint_min=23 / scenecut=40 / intra_refresh=0 / rc_lookahead=60 / rc=crf / mbtree=0 / crf=18.1000 / qcomp=0.60 / qpmin=0 / qpmax=69 / qpstep=4 / vbv_maxrate=20000 / vbv_bufsize=25000 / crf_max=0.0 / nal_hrd=none / filler=0 / ip_ratio=1.40 / pb_ratio=1.30 / aq=1:1.10
Language : English
Default : Yes
Forced : No
Color range : Limited
Color primaries : BT.709
Transfer characteristics : BT.709
Matrix coefficients : BT.709
DURATION : 02:46:35.027000000
NUMBER_OF_FRAMES : 239641
NUMBER_OF_BYTES : 5419244630
_STATISTICS_WRITING_APP : mkvmerge v8.8.0 ('Wind at my back') 64bit
_STATISTICS_WRITING_DATE_UT : 2016-03-07 20:20:37
_STATISTICS_TAGS : BPS DURATION NUMBER_OF_FRAMES NUMBER_OF_BYTES
Audio #1
ID : 2
Format : AC-3
Format/Info : Audio Coding 3
Mode extension : CM (complete main)
Format settings, Endianness : Big
Codec ID : A_AC3
Duration : 2h 46mn
Bit rate mode : Constant
Bit rate : 448 Kbps
Channel(s) : 6 channels
Channel positions : Front: L C R, Side: L R, LFE
Sampling rate : 48.0 KHz
Compression mode : Lossy
Stream size : 534 MiB (9%)
Title : Dub
Language : Russian
Default : Yes
Forced : No
Audio #2
ID : 3
Format : AC-3
Format/Info : Audio Coding 3
Mode extension : CM (complete main)
Format settings, Endianness : Big
Codec ID : A_AC3
Duration : 2h 46mn
Bit rate mode : Constant
Bit rate : 448 Kbps
Channel(s) : 6 channels
Channel positions : Front: L C R, Side: L R, LFE
Sampling rate : 48.0 KHz
Compression mode : Lossy
Stream size : 534 MiB (9%)
Title : Eng
Language : English
Default : No
Forced : No
Text #1
ID : 4
Format : UTF-8
Codec ID : S_TEXT/UTF8
Codec ID/Info : UTF-8 Plain Text
Title : Rus
Language : Russian
Default : No
Forced : No
Text #2
ID : 5
Format : UTF-8
Codec ID : S_TEXT/UTF8
Codec ID/Info : UTF-8 Plain Text
Title : Eng
Language : English
Default : No
Forced : No
Menu
00:00:00.000 : en:Battle of the Five Points
00:15:05.321 : en:A City in Turmoil
00:23:36.456 : en:The Gangs
00:27:42.160 : en:Fighting Over Fires
00:33:19.163 : en:Bill's Tribute
00:38:42.194 : en:A Couple of Fidiam Bens
00:45:58.422 : en:My Medal
00:52:46.830 : en:The Butcher's Lesson
01:01:38.861 : en:The Queen of the Dance
01:10:29.808 : en:Under the Dragon's Wing
01:20:44.631 : en:I'll Bite You
01:25:13.149 : en:Civilization is Crumbling
01:33:23.097 : en:Betrayal
01:36:43.422 : en:This is a Night for Americans!
01:43:20.611 : en:Spared by the Butcher
01:47:37.492 : en:Regaining a Full Heart
01:54:25.525 : en:Old Uncle Joe
02:00:58.542 : en:Just Kill Me
02:07:00.946 : en:Sheriff Monk
02:12:27.439 : en:Notch 45
02:18:03.608 : en:Setting Terms
02:22:59.737 : en:Mob Rule
02:29:22.244 : en:A True American
02:37:53.380 : en:End Credits

x264 log

VIDEO ENCODING
x264 [info]: frame I:1633 Avg QP:16.58 size: 80346 PSNR Mean Y:45.76 U:48.67 V:48.77 Avg:46.51 Global:46.01
x264 [info]: frame P:46161 Avg QP:18.31 size: 41838 PSNR Mean Y:43.98 U:47.49 V:47.59 Avg:44.83 Global:44.20
x264 [info]: frame B:191847 Avg QP:20.37 size: 17497 PSNR Mean Y:42.73 U:46.97 V:47.25 Avg:43.71 Global:43.11
x264 [info]: consecutive B-frames: 1.5% 2.1% 6.2% 17.3% 15.6% 29.9% 7.7% 2.8% 2.9% 3.0% 1.9% 1.6% 2.2% 2.2% 1.5% 0.9% 0.7%
x264 [total]: encoded 239641 frames, 3.97 fps, 4337.55 kb/s, duration 16:46:22.89

Скриншот c названием фильма

Скриншоты

Убедительная просьба пожалуйста кто скачал не бросайте раздачу!!!
 GOLD TORRENT! DOWNLOAD TRAFFIC DOES NOT CONSIDER! 
Torrent: Registered [ 2017-10-04 05:53 ]   · 70533D941FD41760A1F29B767F45482D8FC058C9

Download .torrent

Download

17 KB

Status: checked
Completed: 0 times
Size: 6.61 GB
Поделиться:
terms.php
[Profile] [PM]
Display posts:    
Reply to topic

Current time is: 01-Dec 02:10

All times are UTC + 3



You cannot post new topics in this forum
You cannot reply to topics in this forum
You cannot edit your posts in this forum
You cannot delete your posts in this forum
You cannot vote in polls in this forum
You cannot attach files in this forum
You can download files in this forum