Джек Ричер 2: Никогда не возвращайся / Jack Reacher: Never Go Back (2016) UHD BDRemux 2160p | 4K | HDR | D, A | Лицензия

Reply to topic
DL-List and Torrent activity
Size:  69.71 GB   |    Registered:  2 years 10 months   |    Completed:  0 times

Seeder not seen: Never

Leechers:  6  [  0 KB/s  ]   Show peers in full details
 
   
 
 
Author Message

admin ®

Gender: Male

Longevity: 2 years 11 months

Posts: 10017

Post 05-Nov-2017 12:20

[Quote]

Название фильма: Джек Ричер 2: Никогда не возвращайся
Оригинальное название фильма: Jack Reacher: Never Go Back
Производство: Китай, США / Huahua Film & Media Culture, Paramount Pictures, Shanghai Film Group
Жанр: боевик, триллер, криминал, детектив, приключения
Режиссер: Эдвард Цвик
Продюсер: Кристофер МакКуорри, Том Круз, Дэвид Эллисон
Актеры: Том Круз, Коби Смолдерс, Элдис Ходж, Даника Ярош, Патрик Хьюсингер, Холт МакКэллани, Джудд Лорманд, Кристофер Берри, Хантер Бурк, Джейсон Дуглас
Описание:
Экс-военный Джек Ричер приезжает в Вашингтон, чтобы впервые встретиться с майором Сьюзен Тернер, которая возглавила его бывшее подразделение и не раз выручала его в непростых ситуациях. По странному стечению обстоятельств буквально накануне его визита майора арестовывают по обвинению в измене… Ричеру, уверенному в невиновности Сьюзен, предстоит освободить ее и раскрыть заговор, ниточки которого тянутся на самый верх. Стремясь докопаться до правды, он также делает поразительное открытие, способное раз и навсегда изменить его жизнь.

Релиз от: BeyondHD, BLUEBIRD
Продолжительность: 01:58:09
Качество: UHD BDRemux (HDR)
Перевод: Дублированный (Лицензия BD CEE), Авторский (одноголосый, закадровый) (А. Дасевич, В. Горчаков, М. Яроцкий, Ю. Живов, Л. Володарский)
Субтитры: Английские, Русские (Full-length, Forced), Украинские (Forced)
Видео: HEVC/H.265, 3840x2160p, (16:9), 57.0 Mb/s, 23.976 fps
Аудио: AC3, 6 ch, 640 kbps - Русский, Дубляж
Аудио: AC3, 6 ch, 448 kbps - Украинский
Аудио: DTS-HD MA, 8 ch, 4630 kbps - Русский, А. Дасевич
Аудио: DTS-HD MA, 8 ch, 4468 kbps - Русский, В. Горчаков
Аудио: DTS-HD MA, 8 ch, 3582 kbps - Русский, М. Яроцкий
Аудио: DTS-HD MA, 8 ch, 4640 kbps - Русский, Ю. Живов
Аудио: DTS-HD MA, 8 ch, 4625 kbps - Русский, Л. Володарский
Аудио: TrueHD-Atmos, 8 ch, 4326 kbps - Английский

MediaInfo:

General
Unique ID : 172183203335077531343048610921719728788 (0x8189475A5923F33590DFFE56032B0A94)
Complete name : JACK_REACHER_NGB_BD_UHD_HDR_REMUX-BLUEBIRD.mkv
Format : Matroska
Format version : Version 4 / Version 2
File size : 69.7 GiB
Duration : 1 h 58 min
Overall bit rate mode : Variable
Overall bit rate : 84.5 Mb/s
Movie name : JACK_REACHER_NGB_BD_UHD_HDR_REMUX-BLUEBIRD
Encoded date : UTC 2017-10-23 19:21:50
Writing application : mkvmerge v16.0.0 ('Protest') 64-bit
Writing library : libebml v1.3.5 + libmatroska v1.4.8
Cover : Yes
Attachments : cover.png
Video
ID : 1
Format : HEVC
Format/Info : High Efficiency Video Coding
Format profile : Main 10@L5.1@High
Codec ID : V_MPEGH/ISO/HEVC
Duration : 1 h 58 min
Bit rate : 57.0 Mb/s
Width : 3 840 pixels
Height : 2 160 pixels
Display aspect ratio : 16:9
Frame rate mode : Constant
Frame rate : 23.976 (24000/1001) FPS
Color space : YUV
Chroma subsampling : 4:2:0 (Type 2)
Bit depth : 10 bits
Bits/(Pixel*Frame) : 0.287
Stream size : 47.0 GiB (67%)
Title : JACK_REACHER_NGB_BD_UHD_HDR_REMUX-BLUEBIRD
Writing library : ATEME Titan File 3.7.8 (4.7.8.0)
Default : Yes
Forced : No
Color range : Limited
Color primaries : BT.2020
Transfer characteristics : SMPTE ST 2084
Matrix coefficients : BT.2020 non-constant
Mastering display color primaries : R: x=0.680000 y=0.320000, G: x=0.265000 y=0.690000, B: x=0.150000 y=0.060000, White point: x=0.312700 y=0.329000
Mastering display luminance : min: 0.0050 cd/m2, max: 1000.0000 cd/m2
Audio #1
ID : 2
Format : AC-3
Format/Info : Audio Coding 3
Format settings, Endianness : Big
Codec ID : A_AC3
Duration : 1 h 58 min
Bit rate mode : Constant
Bit rate : 640 kb/s
Channel(s) : 6 channels
Channel positions : Front: L C R, Side: L R, LFE
Sampling rate : 48.0 kHz
Frame rate : 31.250 FPS (1536 SPF)
Bit depth : 16 bits
Compression mode : Lossy
Stream size : 541 MiB (1%)
Title : [DUB] DD 5.1 @ 640 kbps
Language : Russian
Service kind : Complete Main
Default : No
Forced : No
Audio #2
ID : 3
Format : AC-3
Format/Info : Audio Coding 3
Format settings, Endianness : Big
Codec ID : A_AC3
Duration : 1 h 58 min
Bit rate mode : Constant
Bit rate : 448 kb/s
Channel(s) : 6 channels
Channel positions : Front: L C R, Side: L R, LFE
Sampling rate : 48.0 kHz
Frame rate : 31.250 FPS (1536 SPF)
Bit depth : 16 bits
Compression mode : Lossy
Stream size : 379 MiB (1%)
Title : [DUB] DD 5.1 @ 448 kbps
Language : Ukrainian
Service kind : Complete Main
Default : No
Forced : No
Audio #3
ID : 4
Format : DTS
Format/Info : Digital Theater Systems
Format profile : MA / ES Matrix / Core
Mode : 16
Format settings, Endianness : Big
Codec ID : A_DTS
Duration : 1 h 58 min
Bit rate mode : Variable / Constant / Constant
Bit rate : 4 630 kb/s / 1 509 kb/s / 1 509 kb/s
Channel(s) : 8 channels / 7 channels / 6 channels
Channel positions : Front: L C R, Side: L R, Back: L R, LFE / Front: L C R, Side: L R, Back: C, LFE / Front: L C R, Side: L R, LFE
Sampling rate : 48.0 kHz
Frame rate : 93.750 FPS (512 SPF)
Bit depth : 24 bits
Compression mode : Lossless / Lossy / Lossy
Stream size : 3.82 GiB (5%)
Title : [VO] DTS-HD MA 7.1 @ 4630 kbps (A. Dasevich)
Language : Russian
Default : No
Forced : No
Audio #4
ID : 5
Format : DTS
Format/Info : Digital Theater Systems
Format profile : MA / Core
Mode : 16
Format settings, Endianness : Big
Codec ID : A_DTS
Duration : 1 h 58 min
Bit rate mode : Variable / Constant
Bit rate : 4 468 kb/s / 1 509 kb/s
Channel(s) : 8 channels / 6 channels
Channel positions : Front: L C R, Side: L R, Back: L R, LFE / Front: L C R, Side: L R, LFE
Sampling rate : 48.0 kHz
Frame rate : 93.750 FPS (512 SPF)
Bit depth : 24 bits
Compression mode : Lossless / Lossy
Stream size : 3.69 GiB (5%)
Title : [VO] DTS-HD MA 7.1 @ 4468 kbps (V. Gorchakov)
Language : Russian
Default : No
Forced : No
Audio #5
ID : 6
Format : DTS
Format/Info : Digital Theater Systems
Format profile : MA / Core
Mode : 16
Format settings, Endianness : Big
Codec ID : A_DTS
Duration : 1 h 58 min
Bit rate mode : Variable / Constant
Bit rate : 3 582 kb/s / 1 509 kb/s
Channel(s) : 8 channels / 6 channels
Channel positions : Front: L C R, Side: L R, Back: L R, LFE / Front: L C R, Side: L R, LFE
Sampling rate : 48.0 kHz
Frame rate : 93.750 FPS (512 SPF)
Bit depth : 24 bits
Compression mode : Lossless / Lossy
Stream size : 2.96 GiB (4%)
Title : [VO] DTS-HD MA 7.1 @ 3582 kbps (M. Jarockij)
Language : Russian
Default : No
Forced : No
Audio #6
ID : 7
Format : DTS
Format/Info : Digital Theater Systems
Format profile : MA / Core
Mode : 16
Format settings, Endianness : Big
Codec ID : A_DTS
Duration : 1 h 58 min
Bit rate mode : Variable / Constant
Bit rate : 4 640 kb/s / 1 509 kb/s
Channel(s) : 8 channels / 6 channels
Channel positions : Front: L C R, Side: L R, Back: L R, LFE / Front: L C R, Side: L R, LFE
Sampling rate : 48.0 kHz
Frame rate : 93.750 FPS (512 SPF)
Bit depth : 24 bits
Compression mode : Lossless / Lossy
Stream size : 3.83 GiB (5%)
Title : [VO] DTS-HD MA 7.1 @ 4640 kbps (J. Zhyvov)
Language : Russian
Default : No
Forced : No
Audio #7
ID : 8
Format : DTS
Format/Info : Digital Theater Systems
Format profile : MA / Core
Mode : 16
Format settings, Endianness : Big
Codec ID : A_DTS
Duration : 1 h 58 min
Bit rate mode : Variable / Constant
Bit rate : 4 625 kb/s / 1 509 kb/s
Channel(s) : 8 channels / 6 channels
Channel positions : Front: L C R, Side: L R, Back: L R, LFE / Front: L C R, Side: L R, LFE
Sampling rate : 48.0 kHz
Frame rate : 93.750 FPS (512 SPF)
Bit depth : 24 bits
Compression mode : Lossless / Lossy
Stream size : 3.82 GiB (5%)
Title : [VO] DTS-HD MA 7.1 @ 4626 kbps (VO L. Volodarskij)
Language : Russian
Default : No
Forced : No
Audio #8
ID : 9
Format : TrueHD
Format profile : TrueHD+Atmos / TrueHD
Codec ID : A_TRUEHD
Duration : 1 h 58 min
Bit rate mode : Variable
Bit rate : 4 326 kb/s
Maximum bit rate : 7 758 kb/s
Channel(s) : Object Based / 8 channels
Channel positions : Object Based / Front: L C R, Side: L R, Back: L R, LFE
Sampling rate : / 48.0 kHz
Frame rate : 1 200.000 FPS (40 SPF)
Compression mode : Lossless
Stream size : 3.57 GiB (5%)
Title : [ORIGINAL] ATMOS 7.1 @ 4326 kbps
Language : English
Default : No
Forced : No
Text #1
ID : 10
Format : UTF-8
Codec ID : S_TEXT/UTF8
Codec ID/Info : UTF-8 Plain Text
Duration : 1 h 52 min
Bit rate : 79 b/s
Count of elements : 1277
Stream size : 65.5 KiB (0%)
Title : Full-length
Language : Russian
Default : No
Forced : No
Text #2
ID : 11
Format : PGS
Codec ID : S_HDMV/PGS
Codec ID/Info : Picture based subtitle format used on BDs/HD-DVDs
Duration : 1 h 52 min
Bit rate : 33.9 kb/s
Count of elements : 3060
Stream size : 27.2 MiB (0%)
Title : SDH
Language : English
Default : No
Forced : No
Text #3
ID : 12
Format : UTF-8
Codec ID : S_TEXT/UTF8
Codec ID/Info : UTF-8 Plain Text
Duration : 1 h 13 min
Bit rate : 0 b/s
Count of elements : 8
Stream size : 406 Bytes (0%)
Title : Forced
Language : Russian
Default : Yes
Forced : Yes
Text #4
ID : 13
Format : UTF-8
Codec ID : S_TEXT/UTF8
Codec ID/Info : UTF-8 Plain Text
Duration : 1 h 13 min
Bit rate : 0 b/s
Count of elements : 8
Stream size : 369 Bytes (0%)
Title : Forced
Language : Ukrainian
Default : No
Forced : No
Menu
00:00:00.000 : en:Chapter 01
00:07:00.629 : en:Chapter 02
00:15:19.877 : en:Chapter 03
00:20:33.858 : en:Chapter 04
00:29:04.576 : en:Chapter 05
00:34:35.740 : en:Chapter 06
00:42:40.141 : en:Chapter 07
00:49:28.007 : en:Chapter 08
00:58:44.563 : en:Chapter 09
01:03:10.161 : en:Chapter 10
01:09:35.755 : en:Chapter 11
01:15:05.334 : en:Chapter 12
01:21:59.665 : en:Chapter 13
01:27:07.222 : en:Chapter 14
01:34:14.065 : en:Chapter 15
01:46:44.857 : en:Chapter 16
01:53:30.846 : en:Chapter 17

Скриншоты:

 GOLD TORRENT! DOWNLOAD TRAFFIC DOES NOT CONSIDER! 
Torrent: Registered [ 2017-11-05 12:20 ]   · DFA0B932C5A2F0C71974A72928EF43C8B5F8AB2B

Download .torrent

Download

349 KB

Status: checked
Completed: 0 times
Size: 69.71 GB
Поделиться:
terms.php
[Profile] [PM]

Chernyshkov84

Gender: Male

Longevity: 2 months 27 days

Posts: 10

Location: Russia

Post 11-Jul-2020 17:06 (after 2 years 8 months)

[Quote]

В данной раздаче перепутаны дороги Чадова и Есарева.
И зачем сюда прикрутили какой-то самопальный оригинал в DTS-HD, когда на оригинальном диске Dolby Atmos/TrueHD Audio English 5904 kbps 7.1, который в разы лучше ?
Ещё в сети доступен перевод А. Гаврилова и кастомный DTS-HD дубляж.
[Profile] [PM]

admin ®

Gender: Male

Longevity: 2 years 11 months

Posts: 10017

Post 11-Jul-2020 21:01 (after 3 hours)

[Quote]

26897В данной раздаче перепутаны дороги Чадова и Есарева.
И зачем сюда прикрутили какой-то самопальный оригинал в DTS-HD, когда на оригинальном диске Dolby Atmos/TrueHD Audio English 5904 kbps 7.1, который в разы лучше ?
Ещё в сети доступен перевод А. Гаврилова и кастомный DTS-HD дубляж.
Возможно не добавили потому что на мрмент сборки не было звука от Dolby Atmos.
[Profile] [PM]
Display posts:    
Reply to topic

Current time is: 26-Sep 09:16

All times are UTC + 3



You cannot post new topics in this forum
You cannot reply to topics in this forum
You cannot edit your posts in this forum
You cannot delete your posts in this forum
You cannot vote in polls in this forum
You cannot attach files in this forum
You can download files in this forum