Джон Уик 2 / John Wick: Chapter Two (Чад Стахелски / Chad Stahelski) [2017, США, Боевик, триллер, криминал, BDRip-AVC] Dub + Sub Rus, Eng + Original Eng

Reply to topic
DL-List and Torrent activity
Size:  3.29 GB   |    Registered:  3 years   |    Completed:  0 times
Seeders:  1  [  0 KB/s  ]   Leechers:  2  [  0 KB/s  ]   Show peers in full details
 
   
 
 
Author Message

admin ®

Gender: Male

Longevity: 3 years

Posts: 10054

Post 04-Oct-2017 05:44

[Quote]

Джон Уик 2John Wick: Chapter Two«Never stab the devil in the back»

Страна: США
Жанр: Боевик, триллер, криминал
Год выпуска: 2017
Продолжительность: 2:02:22
Перевод: Профессиональный (дублированный) iTunes
Субтитры: русские,английские
Оригинальная аудиодорожка: английский
Режиссер: Чад Стахелски / Chad Stahelski
В ролях: Киану Ривз, Риккардо Скамарчо, Иэн МакШейн, Руби Роуз, Коммон, Клаудия Джерини, Лэнс Реддик, Лоренс Фишбёрн, Тобиаш Сигал, Джон Легуизамо
Описание: Когда бывший коллега Джона решает взять под свой контроль таинственную гильдию убийц, Уик вынужден выйти из отставки. Ведомый кровавой клятвой Джон отправляется в Рим, где ему придется сразиться с одними из самых опасных киллеров в мире.
Доп. информация:
Релиз группы:
Сохранены оригинальные главы как на Bluray
Качество видео: BDRip-AVC | John Wick: Chapter Two (2017) 1080p BD-Remux_Bluebird |
Формат видео: MKV
Видео: 1152x480 (2:40:1), 23,976 fps, 2939 Кbps, 0.222 bit/pixe
Аудио: 48 kHz, AC3 Dolby Digital, 3/2 (L,C,R,l,r) + LFE ch, ~384.00 kbps avg DUB
Аудио 2: 48 kHz, AC3 Dolby Digital, 3/2 (L,C,R,l,r) + LFE ch, ~448.00 kbps avg ENG
Формат субтитров: softsub (SRT)
Доп. информация о субтитрах: отключаемые

Знаете ли Вы что

При подготовке к роли Киану Ривз прошел обучение технике стрельбы из двух пистолетов и в ближнем бою у бывших бойцов спецназа. В интернете было выложено видео с актером на стрельбище, в котором Ривз, постоянно двигаясь из стороны в сторону, стреляет боевыми патронами по мишеням из разных видов оружия.
История про Джона Уика задумывалась как трилогия. Это вторая часть трилогии.
Это первый раз со времен выхода фильма «Матрица: Революция» (2003), когда Лоренс Фишбёрн и Киану Ривз вместе появляются на экране.
Режиссер фильма Чад Стахелски работал дублером/каскадером на трилогии «Матрица».
Непосредственная съемка картины началась 26 октября 2015 года в Нью-Йорке. Съемки также проходили в Риме (Италия) и Монреале (Канада).
Это четвертый совместный проект Петера Стормаре и Киану Ривза после картин «Константин: Повелитель тьмы» (2005), «Криминальная фишка от Генри» (2011) и сериала «Придурки из Швеции» (2016).
Киану Ривз и Коммон уже играли вместе в боевике «Короли улиц» (2008).

MediaInfo

General
Unique ID : 173827542298870099380668841634604297376 (0x82C5F785EC76B27FA7A29DA68FE4ACA0)
Complete name : E:\Мои рипы\Джон Уик 2\John Wick Chapter Two by_IVAN@.190282.mkv
Format : Matroska
Format version : Version 4 / Version 2
File size : 3.29 GiB
Duration : 2h 2mn
Overall bit rate : 3 847 Kbps
Movie name : John Wick Chapter Two by_IVAN@190282
Encoded date : UTC 2017-06-11 01:14:06
Writing application : mkvmerge v12.0.0 ('Trust / Lust') 64bit
Writing library : libebml v1.3.4 + libmatroska v1.4.5
DURATION : 01:49:52.020000000
NUMBER_OF_FRAMES : 669
NUMBER_OF_BYTES : 17942
_STATISTICS_WRITING_APP : mkvmerge v12.0.0 ('Trust / Lust') 64bit
_STATISTICS_WRITING_DATE_UTC : 2017-06-11 01:14:06
_STATISTICS_TAGS : BPS DURATION NUMBER_OF_FRAMES NUMBER_OF_BYTES
Attachment : Yes
Video
ID : 1
Format : AVC
Format/Info : Advanced Video Codec
Format profile : High@L4.1
Format settings, CABAC : Yes
Format settings, ReFrames : 11 frames
Codec ID : V_MPEG4/ISO/AVC
Duration : 2h 2mn
Bit rate : 2 939 Kbps
Width : 1 152 pixels
Height : 480 pixels
Display aspect ratio : 2.40:1
Frame rate mode : Constant
Frame rate : 23.976 fps
Color space : YUV
Chroma subsampling : 4:2:0
Bit depth : 8 bits
Scan type : Progressive
Bits/(Pixel*Frame) : 0.222
Stream size : 2.51 GiB (76%)
Title : John Wick Chapter Two by_IVAN@190282
Writing library : x264 core 148 r2762 90a61ec
Encoding settings : cabac=1 / ref=11 / deblock=1:-3:-3 / analyse=0x3:0x113 / me=umh / subme=11 / psy=1 / psy_rd=1.00:0.05 / mixed_ref=1 / me_range=48 / chroma_me=1 / trellis=2 / 8x8dct=1 / cqm=0 / deadzone=21,11 / fast_pskip=0 / chroma_qp_offset=-3 / threads=6 / lookahead_threads=6 / sliced_threads=0 / nr=0 / decimate=1 / interlaced=0 / bluray_compat=0 / constrained_intra=0 / bframes=16 / b_pyramid=2 / b_adapt=2 / b_bias=0 / direct=3 / weightb=1 / open_gop=0 / weightp=2 / keyint=240 / keyint_min=23 / scenecut=40 / intra_refresh=0 / rc_lookahead=60 / rc=crf / mbtree=0 / crf=17.1 / qcomp=0.60 / qpmin=0 / qpmax=69 / qpstep=4 / vbv_maxrate=50000 / vbv_bufsize=62500 / crf_max=0.0 / nal_hrd=none / filler=0 / ip_ratio=1.40 / pb_ratio=1.30 / aq=3:0.90
Language : English
Default : Yes
Forced : No
Color primaries : BT.709
Transfer characteristics : BT.709
Matrix coefficients : BT.709
DURATION : 02:02:22.377000000
NUMBER_OF_FRAMES : 176041
NUMBER_OF_BYTES : 2765360395
_STATISTICS_WRITING_APP : mkvmerge v12.0.0 ('Trust / Lust') 64bit
_STATISTICS_WRITING_DATE_UTC : 2017-06-11 01:14:06
_STATISTICS_TAGS : BPS DURATION NUMBER_OF_FRAMES NUMBER_OF_BYTES
Audio #1
ID : 2
Format : AC-3
Format/Info : Audio Coding 3
Mode extension : CM (complete main)
Format settings, Endianness : Big
Codec ID : A_AC3
Duration : 2h 2mn
Bit rate mode : Constant
Bit rate : 384 Kbps
Channel(s) : 6 channels
Channel positions : Front: L C R, Side: L R, LFE
Sampling rate : 48.0 KHz
Bit depth : 16 bits
Compression mode : Lossy
Stream size : 336 MiB (10%)
Title : Dub
Language : Russian
Default : Yes
Forced : No
Audio #2
ID : 3
Format : AC-3
Format/Info : Audio Coding 3
Mode extension : CM (complete main)
Format settings, Endianness : Big
Codec ID : A_AC3
Duration : 2h 2mn
Bit rate mode : Constant
Bit rate : 448 Kbps
Channel(s) : 6 channels
Channel positions : Front: L C R, Side: L R, LFE
Sampling rate : 48.0 KHz
Bit depth : 16 bits
Compression mode : Lossy
Stream size : 392 MiB (12%)
Title : Eng
Language : English
Default : No
Forced : No
Text #1
ID : 4
Format : UTF-8
Codec ID : S_TEXT/UTF8
Codec ID/Info : UTF-8 Plain Text
Title : Rus
Language : Russian
Default : No
Forced : No
Text #2
ID : 5
Format : UTF-8
Codec ID : S_TEXT/UTF8
Codec ID/Info : UTF-8 Plain Text
Title : Eng
Language : English
Default : No
Forced : No
Menu
00:00:00.000 : en:00:00:00.000
00:06:31.681 : en:00:06:31.681
00:16:57.932 : en:00:16:57.932
00:26:35.593 : en:00:26:35.593
00:34:38.034 : en:00:34:38.034
00:42:07.815 : en:00:42:07.815
00:48:07.050 : en:00:48:07.050
00:56:41.648 : en:00:56:41.648
01:01:42.782 : en:01:01:42.782
01:10:27.680 : en:01:10:27.680
01:17:15.921 : en:01:17:15.921
01:24:22.640 : en:01:24:22.640
01:32:11.233 : en:01:32:11.233
01:40:01.328 : en:01:40:01.328
01:46:34.761 : en:01:46:34.761
01:54:01.042 : en:01:54:01.042

x264 log

VIDEO ENCODING
x264 [info]: frame I:1184 Avg QP:14.85 size: 90278 PSNR Mean Y:48.88 U:51.56 V:51.46 Avg:49.58 Global:48.59
x264 [info]: frame P:43434 Avg QP:15.90 size: 32050 PSNR Mean Y:47.46 U:50.32 V:50.15 Avg:48.18 Global:47.01
x264 [info]: frame B:131423 Avg QP:17.67 size: 9636 PSNR Mean Y:46.68 U:49.74 V:49.50 Avg:47.43 Global:46.26
x264 [info]: consecutive B-frames: 3.7% 5.8% 11.8% 20.2% 18.6% 26.1% 6.4% 2.4% 1.9% 0.9% 0.8% 0.4% 0.4% 0.2% 0.1% 0.0% 0.1%
x264 [total]: encoded 176041 frames, 1.55 fps, 3000.01 kb/s

Скриншот c названием фильма

Скриншоты

Убедительная просьба пожалуйста кто скачал не бросайте раздачу!!!
 GOLD TORRENT! DOWNLOAD TRAFFIC DOES NOT CONSIDER! 
Torrent: Registered [ 2017-10-04 05:44 ]   · A3D02A9E69120ED766908311B1EBFCB54566B5A1

Download .torrent

Download

17 KB

Status: checked
Completed: 0 times
Size: 3.29 GB
Поделиться:
terms.php
[Profile] [PM]
Display posts:    
Reply to topic

Current time is: 23-Oct 05:48

All times are UTC + 3



You cannot post new topics in this forum
You cannot reply to topics in this forum
You cannot edit your posts in this forum
You cannot delete your posts in this forum
You cannot vote in polls in this forum
You cannot attach files in this forum
You can download files in this forum