Целитель / The Healer (2017) BDRip 720p | L2

Reply to topic
DL-List and Torrent activity
Size:  1.24 GB   |    Registered:  2 years 10 months   |    Completed:  0 times
Seeders:  70  [  0 KB/s  ]   Leechers:  3  [  0 KB/s  ]   Show peers in full details
 
   
 
 
Author Message

admin ®

Gender: Male

Longevity: 2 years 11 months

Posts: 10017

Post 04-Nov-2017 20:47

[Quote]

Информация о фильме
Название: Целитель
Оригинальное название: The Healer
Год выхода: 2017
Жанр: Драма, мелодрама, комедия, семейный
Режиссер: Пако Аранго
В ролях: Оливер Джексон-Коэн, Джонатан Прайс, Камилла Ладдингтон, Хорхе Гарсиа, Batman The Dog, Адриан Хьюз, Kaitlyn Bernard, Дэвид Россетти, Victoria Gillan, Брайан Дауни ...
О фильме:
Главный герой Алек Бейли, убеждённый бабник и разгильдяй, уверен, что лишь наслаждение и азарт помогут залечить раны от потери близких. Хотя бесцельная жизнь и отсутствие перспектив никак его не смущают, но у судьбы, или лучше сказать, у господа бога, на его счёт другие планы. Ведь он ещё не знает, что является потомком священного рода целителей. Однако вкупе с этим идёт и большая ответственность? Готов ли Алек повзрослеть и стать чудом или же продолжит жить во тьме?

Страна: Испания, США, Канада
Продолжительность: 01:48:46
Перевод: Любительский (многоголосый закадровый) | RecentFilms
Файл
Кодек: MPEG-4 AVC/H.264
Качество: BDRip 720p
Видео: 1280x536, 24.000 fps, 1500 Kbps, 0.137 bit/pixel
Звук:
Аудио rus: AAC, 48 kHz, 2 ch, 128 Kbps
Субтитры: отсутствуют
Реклама: присутствует

MediaInfo:

General
Unique ID : 225305546967312409821501857483432758510 (0xA980451BB6106D0981AD5D4475358CEE)
Complete name : F:FilmsThe.Healer.2017.720pThe.Healer.2017.720p.mkv
Format : Matroska
Format version : Version 4 / Version 2
File size : 1.24 GiB
Duration : 1h 48mn
Overall bit rate : 1 628 Kbps
Encoded date : UTC 2017-11-04 01:10:06
Writing application : mkvmerge v17.0.0 ('Be Ur Friend') 64-bit
Writing library : libebml v1.3.5 + libmatroska v1.4.8
Video
ID : 1
Format : AVC
Format/Info : Advanced Video Codec
Format profile : High@L3
Format settings, CABAC : No
Format settings, ReFrames : 1 frame
Codec ID : V_MPEG4/ISO/AVC
Duration : 1h 48mn
Bit rate : 1 500 Kbps
Width : 1 280 pixels
Height : 536 pixels
Display aspect ratio : 2.40:1
Frame rate mode : Constant
Frame rate : 24.000 fps
Color space : YUV
Chroma subsampling : 4:2:0
Bit depth : 8 bits
Scan type : Progressive
Bits/(Pixel*Frame) : 0.091
Stream size : 1.14 GiB (92%)
Writing library : x264 core 148 r2665 a01e339
Encoding settings : cabac=0 / ref=1 / deblock=1:0:0 / analyse=0x3:0x113 / me=hex / subme=7 / psy=1 / psy_rd=1.00:0.00 / mixed_ref=0 / me_range=16 / chroma_me=1 / trellis=1 / 8x8dct=1 / cqm=0 / deadzone=21,11 / fast_pskip=1 / chroma_qp_offset=-2 / threads=12 / lookahead_threads=2 / sliced_threads=0 / nr=0 / decimate=1 / interlaced=0 / bluray_compat=0 / constrained_intra=0 / bframes=0 / weightp=2 / keyint=250 / keyint_min=24 / scenecut=40 / intra_refresh=0 / rc_lookahead=40 / rc=abr / mbtree=1 / bitrate=1500 / ratetol=1.0 / qcomp=0.60 / qpmin=0 / qpmax=69 / qpstep=4 / ip_ratio=1.40 / aq=1:1.00
Default : Yes
Forced : No
Audio
ID : 2
Format : AAC
Format/Info : Advanced Audio Codec
Format profile : LC
Codec ID : A_AAC
Duration : 1h 48mn
Bit rate : 128 Kbps
Channel(s) : 2 channels
Channel positions : Front: L R
Sampling rate : 48.0 KHz
Frame rate : 46.875 fps (1024 spf)
Compression mode : Lossy
Stream size : 99.6 MiB (8%)
Language : English
Default : Yes
Forced : No

Скриншоты

 GOLD TORRENT! DOWNLOAD TRAFFIC DOES NOT CONSIDER! 
Torrent: Registered [ 2017-11-04 20:47 ]   · BFFE55BA5AEEC0546DBCFFD96CC2C8131213430F

Download .torrent

Download

13 KB

Status: T temporary
Completed: 0 times
Size: 1.24 GB
Поделиться:
terms.php
[Profile] [PM]
Display posts:    
Reply to topic

Current time is: 26-Sep 07:24

All times are UTC + 3



You cannot post new topics in this forum
You cannot reply to topics in this forum
You cannot edit your posts in this forum
You cannot delete your posts in this forum
You cannot vote in polls in this forum
You cannot attach files in this forum
You can download files in this forum