Ценный груз / Precious Cargo (Макс Адамс / Max Adams) [2016, Канада, Боевик, триллер, драма, криминал, HDRip-AVC] Dub + Sub Eng + Original Eng

Reply to topic
DL-List and Torrent activity
Size:  3.27 GB   |    Registered:  4 months 21 day   |    Completed:  0 times

Seeder not seen: Never

 
   
 
 
Author Message

admin ®

Gender: Male

Longevity: 3 years 1 month

Posts: 10044

Post 04-Oct-2017 04:17

[Quote]

Ценный грузPrecious Cargo«Never steal from a thief»

Страна: Канада
Жанр: Боевик, триллер, драма, криминал
Год выпуска: 2016
Продолжительность: 01:29:56
Перевод: Профессиональный (дублированный) iTunes
Субтитры: английские
Оригинальная аудиодорожка: английский
Режиссер: Макс Адамс / Max Adams
В ролях: Брюс Уиллис, Марк-Пол Госселаар, Клэр Форлани, Дженна Б. Келли, Николас М. Лоб, Дэниэл Бернхард, Джон Бразертон, Лидия Халл, Сэмми Барбер, Тайлер Джон Олсон
Описание: Босс преступной группировки пробует убежать от ответственности за ограбление, которое совершил другой вор.
Доп. информация:
Релиз группы:
Сохранены оригинальные главы как на Bluray
Качество видео: HDRip-AVC
Формат видео: MKV
Видео: 1152x482 (2:40:1), 23,976 fps, 4239 Кbps, 0.318 bit/pixe
Аудио: 48 kHz, AC3 Dolby Digital, 3/2 (L,C,R,l,r) + LFE ch, ~384.00 kbps avg DUB
Аудио 2: 48 kHz, AC3 Dolby Digital, 3/2 (L,C,R,l,r) + LFE ch, ~448.00 kbps avg ENG
Формат субтитров: softsub (SRT)
Доп. информация о субтитрах: отключаемые

Знаете ли Вы что

• За первый уикенд в пяти кинотеатрах Великобритании фильм собрал всего 86 фунтов стерлингов.
• Второй совместный проект Дженны Б. Келли и Брюса Уиллиса после фильма «Извлечение» (Стивен С. Миллер, 2015).
• Второй совместный проект Лидии Халл и Брюса Уиллиса после фильма «Налётчики» (Стивен С. Миллер, 2016).
• Джек, которого играет Марк-Пол Госселаар, носит футболку Bumpy Pitch. Это лос-анджелесский лейбл для страстных поклонников футбола.

MediaInfo

General
Unique ID : 243475665347455445859565545742820811290 (0xB72BB51C3E982B60A9E750C7D8BDA21A)
Complete name : E:\Мои рипы\Ценный груз\Precious Cargo by_IVAN@190282.mkv
Format : Matroska
Format version : Version 4 / Version 2
File size : 3.27 GiB
Duration : 1h 30mn
Overall bit rate : 5 174 Kbps
Movie name : Precious Cargo by_IVAN@190282
Encoded date : UTC 2017-05-02 16:26:03
Writing application : mkvmerge v11.0.0 ('Alive') 64bit
Writing library : libebml v1.3.4 + libmatroska v1.4.5
DURATION : 01:28:13.539000000
NUMBER_OF_FRAMES : 1117
NUMBER_OF_BYTES : 42638
_STATISTICS_WRITING_APP : mkvmerge v11.0.0 ('Alive') 64bit
_STATISTICS_WRITING_DATE_UTC : 2017-05-02 16:26:03
_STATISTICS_TAGS : BPS DURATION NUMBER_OF_FRAMES NUMBER_OF_BYTES
Attachment : Yes
Video
ID : 1
Format : AVC
Format/Info : Advanced Video Codec
Format profile : High@L4.1
Format settings, CABAC : Yes
Format settings, ReFrames : 11 frames
Codec ID : V_MPEG4/ISO/AVC
Duration : 1h 30mn
Bit rate : 4 239 Kbps
Width : 1 152 pixels
Height : 482 pixels
Display aspect ratio : 2.40:1
Frame rate mode : Constant
Frame rate : 23.976 fps
Color space : YUV
Chroma subsampling : 4:2:0
Bit depth : 8 bits
Scan type : Progressive
Bits/(Pixel*Frame) : 0.318
Stream size : 2.68 GiB (82%)
Title : Precious Cargo by_IVAN@190282
Writing library : x264 core 148 r2762 90a61ec
Encoding settings : cabac=1 / ref=11 / deblock=1:-3:-3 / analyse=0x3:0x113 / me=umh / subme=11 / psy=1 / psy_rd=1.00:0.05 / mixed_ref=1 / me_range=48 / chroma_me=1 / trellis=2 / 8x8dct=1 / cqm=0 / deadzone=21,11 / fast_pskip=0 / chroma_qp_offset=-3 / threads=6 / lookahead_threads=6 / sliced_threads=0 / nr=0 / decimate=1 / interlaced=0 / bluray_compat=0 / constrained_intra=0 / bframes=16 / b_pyramid=2 / b_adapt=2 / b_bias=0 / direct=3 / weightb=1 / open_gop=0 / weightp=2 / keyint=240 / keyint_min=23 / scenecut=40 / intra_refresh=0 / rc_lookahead=60 / rc=crf / mbtree=0 / crf=17.2 / qcomp=0.60 / qpmin=0 / qpmax=69 / qpstep=4 / vbv_maxrate=50000 / vbv_bufsize=62500 / crf_max=0.0 / nal_hrd=none / filler=0 / ip_ratio=1.40 / pb_ratio=1.30 / aq=3:0.70
Language : English
Default : Yes
Forced : No
Color primaries : BT.709
Transfer characteristics : BT.709
Matrix coefficients : BT.709
DURATION : 01:29:56.433000000
NUMBER_OF_FRAMES : 129385
NUMBER_OF_BYTES : 2943627305
_STATISTICS_WRITING_APP : mkvmerge v11.0.0 ('Alive') 64bit
_STATISTICS_WRITING_DATE_UTC : 2017-05-02 16:26:03
_STATISTICS_TAGS : BPS DURATION NUMBER_OF_FRAMES NUMBER_OF_BYTES
Audio #1
ID : 2
Format : AC-3
Format/Info : Audio Coding 3
Mode extension : CM (complete main)
Format settings, Endianness : Big
Codec ID : A_AC3
Duration : 1h 30mn
Bit rate mode : Constant
Bit rate : 384 Kbps
Channel(s) : 6 channels
Channel positions : Front: L C R, Side: L R, LFE
Sampling rate : 48.0 KHz
Bit depth : 16 bits
Compression mode : Lossy
Stream size : 248 MiB (7%)
Title : Dub
Language : Russian
Default : Yes
Forced : No
Audio #2
ID : 3
Format : AC-3
Format/Info : Audio Coding 3
Mode extension : CM (complete main)
Format settings, Endianness : Big
Codec ID : A_AC3
Duration : 1h 30mn
Bit rate mode : Constant
Bit rate : 448 Kbps
Channel(s) : 6 channels
Channel positions : Front: L C R, Side: L R, LFE
Sampling rate : 48.0 KHz
Bit depth : 16 bits
Compression mode : Lossy
Stream size : 290 MiB (9%)
Title : Eng
Language : English
Default : No
Forced : No
Text #1
ID : 4
Format : UTF-8
Codec ID : S_TEXT/UTF8
Codec ID/Info : UTF-8 Plain Text
Title : Eng
Language : English
Default : No
Forced : No
Text #2
ID : 5
Format : UTF-8
Codec ID : S_TEXT/UTF8
Codec ID/Info : UTF-8 Plain Text
Title : Eng SDH
Language : English
Default : No
Forced : No
Menu
00:00:00.000 : en:00:00:00.000
00:08:58.620 : en:00:08:58.620
00:12:51.937 : en:00:12:51.937
00:16:55.847 : en:00:16:55.847
00:25:43.208 : en:00:25:43.208
00:32:43.126 : en:00:32:43.126
00:36:33.899 : en:00:36:33.899
00:42:13.197 : en:00:42:13.197
00:46:02.550 : en:00:46:02.550
00:52:34.358 : en:00:52:34.358
00:58:47.106 : en:00:58:47.106
01:02:41.465 : en:01:02:41.465
01:06:36.573 : en:01:06:36.573
01:08:36.694 : en:01:08:36.694
01:12:46.904 : en:01:12:46.904
01:21:35.055 : en:01:21:35.055

x264 log

VIDEO ENCODING
x264 [info]: frame I:1130 Avg QP:15.62 size: 94902 PSNR Mean Y:46.94 U:50.18 V:50.24 Avg:47.77 Global:47.17
x264 [info]: frame P:32603 Avg QP:17.68 size: 40927 PSNR Mean Y:45.47 U:49.03 V:49.13 Avg:46.35 Global:45.49
x264 [info]: frame B:95652 Avg QP:20.11 size: 15703 PSNR Mean Y:44.40 U:48.42 V:48.50 Avg:45.35 Global:44.38
x264 [info]: consecutive B-frames: 4.3% 5.3% 10.3% 24.9% 18.2% 28.6% 4.4% 1.1% 0.9% 0.5% 0.4% 0.2% 0.3% 0.3% 0.1% 0.1% 0.1%
x264 [total]: encoded 129385 frames, 1.60 fps, 4363.81 kb/s

Скриншот c названием фильма

Скриншоты

Убедительная просьба пожалуйста кто скачал не бросайте раздачу!!!
 GOLD TORRENT! DOWNLOAD TRAFFIC DOES NOT CONSIDER! 
Torrent: Registered [ 2020-06-07 03:13 ]   · 36B85343B23885DC39DDA195F0994E5E5A6E00EF

Download .torrent

Download

17 KB

Status: checked
Completed: 0 times
Size: 3.27 GB
Поделиться:
terms.php
[Profile] [PM]
Display posts:    
Reply to topic

Current time is: 28-Oct 03:37

All times are UTC + 3



You cannot post new topics in this forum
You cannot reply to topics in this forum
You cannot edit your posts in this forum
You cannot delete your posts in this forum
You cannot vote in polls in this forum
You cannot attach files in this forum
You can download files in this forum