Визит / The Visit (М. Найт Шьямалан / M. Night Shyamalan) [2015, США, Ужасы, триллер, BDRip-AVC] Dub + Sub Rus, Eng + Original Eng

Reply to topic
DL-List and Torrent activity
Size:  2.79 GB   |    Registered:  3 months 25 days   |    Completed:  0 times

Seeder not seen: Never

 
   
 
 
Author Message

admin ®

Gender: Male

Longevity: 3 years

Posts: 10018

Post 04-Oct-2017 03:51

[Quote]

ВизитThe Visit«Любовь родственников не знает предела»

Страна: США
Жанр: Ужасы, триллер
Год выпуска: 2015
Продолжительность: 01:33:54
Перевод: Профессиональный (дублированный) Bluray CEE
Субтитры: русские,английские
Оригинальная аудиодорожка: английский
Режиссер: М. Найт Шьямалан / M. Night Shyamalan
В ролях: Оливия ДеДжонг, Эд Оксенбульд, Дианна Данаган, Питер МакРобби, Кэтрин Хан, Селия Кинэн-Болджер, Самуэль Стриклен, Патрик Дарро, Хорхе Кордова, Стив Аннан
Описание: Много лет назад она бежала из родительского дома без оглядки и с тех пор старалась не вспоминать события той самой ночи. Теперь у нее уже взрослые дети. Однажды они получают приглашения от бабушки и дедушки, которых никогда не видели прежде, и решают нанести им визит.
Доп. информация:
Релиз группы:
Сохранены оригинальные главы как на Bluray
Качество видео: BDRip-AVC | Визит / The Visit (2015) Blu-ray CEE 1080p AVC DTS 5.1|HD Club|
Формат видео: MKV
Видео: 1132x612 (1:85:1), 23,976 fps, 3266 Кbps, 0.197 bit/pixe
Аудио: 48 kHz, AC3 Dolby Digital, 3/2 (L,C,R,l,r) + LFE ch, ~448.00 kbps avg | DUB
Аудио 2: 48 kHz, AC3 Dolby Digital, 3/2 (L,C,R,l,r) + LFE ch, ~448.00 kbps avg | ENG
Формат субтитров: softsub (SRT)
Доп. информация о субтитрах: отключаемые

MediaInfo

General
Unique ID : 246084540943156445901664996062088468203 (0xB922289BAB46C4838C807594FCE516EB)
Complete name : E:\Мои рипы\Визит\The Visit by_IVAN@190282.mkv
Format : Matroska
Format version : Version 4 / Version 2
File size : 2.79 GiB
Duration : 1h 33mn
Overall bit rate : 4 246 Kbps
Movie name : The Visit by_IVAN@190282
Encoded date : UTC 2016-02-28 13:39:17
Writing application : mkvmerge v8.8.0 ('Wind at my back') 64bit
Writing library : libebml v1.3.3 + libmatroska v1.4.4
Attachements : cover.jpg
DURATION : 01:29:25.026000000
NUMBER_OF_FRAMES : 1355
NUMBER_OF_BYTES : 43514
_STATISTICS_WRITING_APP : mkvmerge v8.8.0 ('Wind at my back') 64bit
_STATISTICS_WRITING_DATE_UT : 2016-02-28 13:39:17
_STATISTICS_TAGS : BPS DURATION NUMBER_OF_FRAMES NUMBER_OF_BYTES
Video
ID : 1
Format : AVC
Format/Info : Advanced Video Codec
Format profile : High@L4.1
Format settings, CABAC : Yes
Format settings, ReFrames : 11 frames
Codec ID : V_MPEG4/ISO/AVC
Duration : 1h 33mn
Bit rate : 3 266 Kbps
Width : 1 132 pixels
Height : 612 pixels
Display aspect ratio : 1.85:1
Frame rate mode : Constant
Frame rate : 23.976 fps
Color space : YUV
Chroma subsampling : 4:2:0
Bit depth : 8 bits
Scan type : Progressive
Bits/(Pixel*Frame) : 0.197
Stream size : 2.14 GiB (77%)
Title : The Visit by_IVAN@190282
Writing library : x264 core 148 r2638kMod 7599210
Encoding settings : cabac=1 / ref=11 / deblock=1:-3:-2 / analyse=0x3:0x133 / me=umh / subme=11 / psy=1 / fade_compensate=0.00 / psy_rd=1.00:0.05 / mixed_ref=1 / me_range=48 / chroma_me=1 / trellis=2 / 8x8dct=1 / cqm=0 / deadzone=21,11 / fast_pskip=0 / chroma_qp_offset=-3 / threads=6 / lookahead_threads=6 / sliced_threads=0 / nr=0 / decimate=1 / interlaced=0 / bluray_compat=0 / constrained_intra=0 / fgo=0 / bframes=16 / b_pyramid=2 / b_adapt=2 / b_bias=0 / direct=3 / weightb=1 / open_gop=0 / weightp=2 / keyint=240 / keyint_min=23 / scenecut=40 / intra_refresh=0 / rc_lookahead=60 / rc=crf / mbtree=0 / crf=17.1000 / qcomp=0.60 / qpmin=0 / qpmax=69 / qpstep=4 / vbv_maxrate=50000 / vbv_bufsize=62500 / crf_max=0.0 / nal_hrd=none / filler=0 / ip_ratio=1.40 / pb_ratio=1.30 / aq=2:1.10
Language : English
Default : Yes
Forced : No
Color range : Limited
Color primaries : BT.709
Transfer characteristics : BT.709
Matrix coefficients : BT.709
DURATION : 01:33:54.921000000
NUMBER_OF_FRAMES : 135103
NUMBER_OF_BYTES : 2358021693
_STATISTICS_WRITING_APP : mkvmerge v8.8.0 ('Wind at my back') 64bit
_STATISTICS_WRITING_DATE_UT : 2016-02-28 13:39:17
_STATISTICS_TAGS : BPS DURATION NUMBER_OF_FRAMES NUMBER_OF_BYTES
Audio #1
ID : 2
Format : AC-3
Format/Info : Audio Coding 3
Mode extension : CM (complete main)
Format settings, Endianness : Big
Codec ID : A_AC3
Duration : 1h 33mn
Bit rate mode : Constant
Bit rate : 448 Kbps
Channel(s) : 6 channels
Channel positions : Front: L C R, Side: L R, LFE
Sampling rate : 48.0 KHz
Compression mode : Lossy
Stream size : 301 MiB (11%)
Title : Dub BDCEE
Default : Yes
Forced : No
Audio #2
ID : 3
Format : AC-3
Format/Info : Audio Coding 3
Mode extension : CM (complete main)
Format settings, Endianness : Big
Codec ID : A_AC3
Duration : 1h 33mn
Bit rate mode : Constant
Bit rate : 448 Kbps
Channel(s) : 6 channels
Channel positions : Front: L C R, Side: L R, LFE
Sampling rate : 48.0 KHz
Compression mode : Lossy
Stream size : 301 MiB (11%)
Title : Eng
Language : English
Default : No
Forced : No
Text #1
ID : 4
Format : UTF-8
Codec ID : S_TEXT/UTF8
Codec ID/Info : UTF-8 Plain Text
Title : Rus forsed
Default : Yes
Forced : Yes
Text #2
ID : 5
Format : UTF-8
Codec ID : S_TEXT/UTF8
Codec ID/Info : UTF-8 Plain Text
Title : Rus
Default : No
Forced : No
Text #3
ID : 6
Format : UTF-8
Codec ID : S_TEXT/UTF8
Codec ID/Info : UTF-8 Plain Text
Title : Eng
Language : English
Default : No
Forced : No
Menu
00:00:00.000 : en:Chapter 1
00:02:51.921 : en:Chapter 2
00:06:38.356 : en:Chapter 3
00:11:08.709 : en:Chapter 4
00:17:11.947 : en:Chapter 5
00:21:39.798 : en:Chapter 6
00:25:45.752 : en:Chapter 7
00:29:44.824 : en:Chapter 8
00:34:24.854 : en:Chapter 9
00:40:48.571 : en:Chapter 10
00:44:42.012 : en:Chapter 11
00:48:16.393 : en:Chapter 12
00:52:34.734 : en:Chapter 13
00:57:08.383 : en:Chapter 14
01:00:54.108 : en:Chapter 15
01:05:17.163 : en:Chapter 16
01:09:08.185 : en:Chapter 17
01:13:38.372 : en:Chapter 18
01:23:58.908 : en:Chapter 19
01:28:54.037 : en:Chapter 20

x264 log

VIDEO ENCODING
x264 [info]: frame I:667 Avg QP:14.76 size:100462 PSNR Mean Y:49.34 U:52.38 V:52.16 Avg:50.04 Global:48.88
x264 [info]: frame P:30625 Avg QP:15.57 size: 35353 PSNR Mean Y:47.78 U:51.33 V:50.96 Avg:48.56 Global:47.38
x264 [info]: frame B:103811 Avg QP:17.83 size: 11640 PSNR Mean Y:46.97 U:50.47 V:50.11 Avg:47.70 Global:46.47
x264 [info]: consecutive B-frames: 2.9% 4.1% 8.9% 15.2% 13.6% 44.6% 4.1% 1.5% 1.3% 0.5% 0.7% 1.1% 0.3% 0.2% 0.2% 0.1% 0.6%
x264 [total]: encoded 135103 frames, 6.21 fps, 3347.73 kb/s, duration 6:02:19.62

Скриншот c названием фильма

Скриншоты

Убедительная просьба пожалуйста кто скачал не бросайте раздачу!!!
 GOLD TORRENT! DOWNLOAD TRAFFIC DOES NOT CONSIDER! 
Torrent: Registered [ 2020-06-06 07:48 ]   · 52632642761194FF06C4705DFD4BE6C0C05B85EC

Download .torrent

Download

14 KB

Status: checked
Completed: 0 times
Size: 2.79 GB
Поделиться:
terms.php
[Profile] [PM]
Display posts:    
Reply to topic

Current time is: 01-Oct 18:07

All times are UTC + 3



You cannot post new topics in this forum
You cannot reply to topics in this forum
You cannot edit your posts in this forum
You cannot delete your posts in this forum
You cannot vote in polls in this forum
You cannot attach files in this forum
You can download files in this forum