Стеклянный замок / The Glass Castle (2017) BDRip 1080p | L

Reply to topic
DL-List and Torrent activity
Size:  10.08 GB   |    Registered:  2 years 10 months   |    Completed:  0 times
Seeders:  12  [  0 KB/s  ]   Leechers:  5  [  0 KB/s  ]   Show peers in full details
 
   
 
 
Author Message

admin ®

Gender: Male

Longevity: 3 years

Posts: 10018

Post 31-Oct-2017 11:46

[Quote]

Информация о фильме
Название: Стеклянный замок
Оригинальное название: The Glass Castle
Год выхода: 2017
Жанр: драма, биография
Режиссер: Дестин Креттон
В ролях: Бри Ларсон, Вуди Харрельсон, Наоми Уоттс, Элла Андерсон, Чандлер Хэд, Макс Гринфилд, Джош Барклай Карас, Чарли Шотуэлл, Иэн Армитедж, Сара Снук
О фильме:
Девочка растет в неблагополучной семье нонконформистов-кочевников. Ее мать эксцентричная артистка, а отец — алкоголик. Родители пытаются вселить надежду в ее детское воображение, чтобы хоть как-то отвлечь внимание от бедности.

Страна: США
Студия: Lionsgate, Netter Productions
Продолжительность: 02:07:11
Перевод: Любительский (многоголосый, закадровый) | [КОЛОБОК]
ПРИМЕЧАНИЕ: ПРИСУТСТВУЕТ РЕКЛАМА
Файл
Кодек: x264
Качество: BDRip 1080p
Видео: 1920x800, 10.8 Mb/s, 23.976 fps
Звук: 48.0 kHz, AC3 Dolby Digital, 2/0 (L,R) ch, ~448 kbps
Субтитры: нет

MediaInfo

General
Unique ID : 211520324585726810130041225378323675498 (0x9F21552B9AFCBE1888CF699E83BEB96A)
Complete name : D:TorrentThe.Glass.Castle.2017.P.BDRip.1O8Op_KOSHARA.mkv
Format : Matroska
Format version : Version 2
File size : 10.1 GiB
Duration : 2 h 8 min
Overall bit rate mode : Variable
Overall bit rate : 11.3 Mb/s
Encoded date : UTC 2017-10-28 13:04:12
Writing application : mkvmerge v8.3.0 ('Over the Horizon') 64bit
Writing library : libebml v1.3.1 + libmatroska v1.4.2
Video
ID : 2
Format : AVC
Format/Info : Advanced Video Codec
Format profile : High@L4.1
Format settings, CABAC : Yes
Format settings, RefFrames : 5 frames
Codec ID : V_MPEG4/ISO/AVC
Duration : 2 h 8 min
Bit rate mode : Variable
Bit rate : 10.8 Mb/s
Maximum bit rate : 12.0 Mb/s
Width : 1 920 pixels
Height : 800 pixels
Display aspect ratio : 2.40:1
Frame rate mode : Constant
Frame rate : 23.976 (24000/1001) FPS
Standard : Component
Color space : YUV
Chroma subsampling : 4:2:0
Bit depth : 8 bits
Scan type : Progressive
Bits/(Pixel*Frame) : 0.293
Stream size : 9.68 GiB (96%)
Default : Yes
Forced : No
Color range : Limited
Color primaries : BT.709
Transfer characteristics : BT.709
Matrix coefficients : BT.709
Audio
ID : 1
Format : AC-3
Format/Info : Audio Coding 3
Format settings, Endianness : Big
Codec ID : A_AC3
Duration : 2 h 8 min
Bit rate mode : Constant
Bit rate : 448 kb/s
Channel(s) : 2 channels
Channel positions : Front: L R
Sampling rate : 48.0 kHz
Frame rate : 31.250 FPS (1536 SPF)
Bit depth : 16 bits
Compression mode : Lossy
Stream size : 411 MiB (4%)
Service kind : Complete Main
Default : Yes
Forced : No
 GOLD TORRENT! DOWNLOAD TRAFFIC DOES NOT CONSIDER! 
Torrent: Registered [ 2017-10-31 11:46 ]   · 50310274BA7AB3F814ECFA4AC96E6F192E75B9D5

Download .torrent

Download

52 KB

Status: T temporary
Completed: 0 times
Size: 10.08 GB
Поделиться:
terms.php
[Profile] [PM]
Display posts:    
Reply to topic

Current time is: 30-Sep 05:09

All times are UTC + 3



You cannot post new topics in this forum
You cannot reply to topics in this forum
You cannot edit your posts in this forum
You cannot delete your posts in this forum
You cannot vote in polls in this forum
You cannot attach files in this forum
You can download files in this forum