Неоспоримый 4 / Boyka: Undisputed IV (2016) BDRip-AVC от R.G.Resident | L

Reply to topic
DL-List and Torrent activity
Size:  1.69 GB   |    Registered:  2 years 11 months   |    Completed:  0 times
Seeders:  76  [  0 KB/s  ]   Leechers:  6  [  0 KB/s  ]   Show peers in full details
 
   
 
 
Author Message

admin ®

Gender: Male

Longevity: 3 years 1 month

Posts: 10044

Post 31-Oct-2017 01:43

[Quote]

Информация о фильме
Название: Неоспоримый 4
Оригинальное название: Boyka: Undisputed IV
Год выпуска: 2016
Страна: Таиланд
Жанр: боевик-Перевод: Любительский многоголосый [Студия "Paradox" & Omskbird records]
Примечание: Релиз без рекламы. Присутствует ненормативная лексика!
Субтитры: английские (Full)
Продолжительность: 01:30:13-Режиссер: Тодор Чапканов
В ролях: Скотт Эдкинс (Boyka), Теодора Духовникова (Alma), Алон Абутбул (Zourab), Юлиан Вергов (Slava), Брахим Ачаббаке (Igor Kazmir), Пол Чахиди (Kiril), Petio Petkov (Dominik), Валентин Ганев (Warden), Владо Мажанаов (Priest), Мартин Форд (Koshmar), Владимир Колев (Koychev), Христо Петков (Guard)-Описание:
Бойка пробует свои силы в высшей лиге, но случайная смерть на ринге заставляет его подвергнуть сомнению всё, во что он верит.-Рейтинг:

MPAA: R - Лицам до 17 лет обязательно присутствие взрослого-Качество: BDRip-AVC |Исх: BDRemux 1080p|
Формат: MKV
Видео: AVC, 1024x554 (1.85:1), 2046 kbps, 23,976 fps, 0,150 bpp
Аудио №1: русский / AC3 / 2.0 / 48 kHz / 192 kbps / |MVO|
Аудио №2: английский / AC3 / 5.1 / 48 kHz / 448 kbps /
Навигация по главам: есть
Сэмпл-

ОтчетМедиаИнфо

General
Unique ID : 235660859494371097167941470932198248661 (0xB14AA16F225EDF3480614A636FE450D5)
Complete name : E:Boyka.Undisputed.IV.2016.BDRip.AVC.R.G.Resident.mkv
Format : Matroska
Format version : Version 4 / Version 2
File size : 1.69 GiB
Duration : 1 h 30 min
Overall bit rate : 2 684 kb/s
Movie name : Неоспоримый 4 / Boyka: Undisputed IV (2016) BDRip-AVC от R.G. Resident
Encoded date : UTC 2017-08-01 11:18:55
Writing application : mkvmerge v14.0.0 ('Flow') 64bit
Writing library : libebml v1.3.4 + libmatroska v1.4.5
Cover : Yes
Attachments : cover.jpg
Video
ID : 1
Format : AVC
Format/Info : Advanced Video Codec
Format profile : High@L4.1
Format settings, CABAC : Yes
Format settings, ReFrames : 12 frames
Codec ID : V_MPEG4/ISO/AVC
Duration : 1 h 30 min
Bit rate : 2 046 kb/s
Width : 1 024 pixels
Height : 554 pixels
Display aspect ratio : 1.85:1
Frame rate mode : Constant
Frame rate : 23.976 (24000/1001) FPS
Color space : YUV
Chroma subsampling : 4:2:0
Bit depth : 8 bits
Scan type : Progressive
Bits/(Pixel*Frame) : 0.150
Stream size : 1.29 GiB (76%)
Title : -Lexx-
Writing library : x264 core 152 r2851kMod ba24899
Encoding settings : cabac=1 / ref=12 / deblock=1:-3:-3 / analyse=0x3:0x113 / me=umh / subme=11 / psy=1 / fade_compensate=0.00 / psy_rd=1.00:0.15 / mixed_ref=1 / me_range=48 / chroma_me=1 / trellis=2 / 8x8dct=1 / cqm=0 / deadzone=21,11 / fast_pskip=0 / chroma_qp_offset=-3 / threads=12 / lookahead_threads=3 / sliced_threads=0 / nr=0 / decimate=0 / interlaced=0 / bluray_compat=0 / constrained_intra=0 / bframes=9 / b_pyramid=2 / b_adapt=2 / b_bias=0 / direct=3 / weightb=1 / open_gop=0 / weightp=2 / keyint=240 / keyint_min=23 / scenecut=40 / intra_refresh=0 / rc_lookahead=40 / rc=2pass / mbtree=0 / bitrate=2046 / ratetol=1.0 / qcomp=0.60 / qpmin=0 / qpmax=69 / qpstep=4 / cplxblur=20.0 / qblur=0.5 / vbv_maxrate=50000 / vbv_bufsize=62500 / nal_hrd=none / filler=0 / ip_ratio=1.40 / pb_ratio=1.30 / aq=1:1.00
Language : English
Default : Yes
Forced : No
Color range : Limited
Color primaries : BT.709
Transfer characteristics : BT.709
Matrix coefficients : BT.709
Audio #1
ID : 2
Format : AC-3
Format/Info : Audio Coding 3
Mode extension : CM (complete main)
Format settings, Endianness : Big
Codec ID : A_AC3
Duration : 1 h 29 min
Bit rate mode : Constant
Bit rate : 192 kb/s
Channel(s) : 2 channels
Channel positions : Front: L R
Sampling rate : 48.0 kHz
Frame rate : 31.250 FPS (1536 spf)
Compression mode : Lossy
Stream size : 123 MiB (7%)
Title : MVO | Студия "Paradox" & Omskbird records
Language : Russian
Default : Yes
Forced : No
Audio #2
ID : 3
Format : AC-3
Format/Info : Audio Coding 3
Mode extension : CM (complete main)
Format settings, Endianness : Big
Codec ID : A_AC3
Duration : 1 h 30 min
Bit rate mode : Constant
Bit rate : 448 kb/s
Channel(s) : 6 channels
Channel positions : Front: L C R, Side: L R, LFE
Sampling rate : 48.0 kHz
Frame rate : 31.250 FPS (1536 spf)
Compression mode : Lossy
Stream size : 289 MiB (17%)
Title : Original
Language : English
Default : No
Forced : No
Text
ID : 4
Format : UTF-8
Codec ID : S_TEXT/UTF8
Codec ID/Info : UTF-8 Plain Text
Duration : 1 h 24 min
Bit rate : 30 b/s
Count of elements : 618
Stream size : 18.9 KiB (0%)
Title : Full
Language : English
Default : No
Forced : No
Menu
00:00:00.000 : :Chapter 1
00:12:32.710 : :Chapter 2
00:20:16.424 : :Chapter 3
00:32:57.726 : :Chapter 4
00:43:08.795 : :Chapter 5
00:50:12.218 : :Chapter 6
01:03:27.262 : :Chapter 7
01:11:19.150 : :Chapter 8
01:18:29.204 : :Chapter 9
01:26:03.992 : :Chapter 10

Скриншоты

 GOLD TORRENT! DOWNLOAD TRAFFIC DOES NOT CONSIDER! 
Torrent: Registered [ 2017-10-31 01:43 ]   · 13DE3361620CE7E70C9AE13D77854718D0504226

Download .torrent

Download

18 KB

Status: checked
Completed: 0 times
Size: 1.69 GB
Поделиться:
terms.php
[Profile] [PM]
Display posts:    
Reply to topic

Current time is: 28-Oct 02:02

All times are UTC + 3



You cannot post new topics in this forum
You cannot reply to topics in this forum
You cannot edit your posts in this forum
You cannot delete your posts in this forum
You cannot vote in polls in this forum
You cannot attach files in this forum
You can download files in this forum