План Побега / Escape Plan (Микаэль Хофстрём / Mikael Håfström) [2013, США, Боевик, Триллер, Детектив, BDRip-AVC] Dub + 3x AVO + Sub Rus, Eng + Original Eng

Reply to topic
DL-List and Torrent activity
Size:  3.55 GB   |    Registered:  2 years 2 months   |    Completed:  7 times

Seeder not seen: 27 days

 
   
 
 
Author Message

admin ®

Gender: Male

Longevity: 2 years 2 months

Posts: 14987

Post 04-Oct-2017 03:18

[Quote]

План ПобегаEscape Plan«Из самой надежной тюрьмы в одиночку убежать невозможно»

Страна: США
Жанр: Боевик, Триллер, Детектив
Год выпуска: 2013
Продолжительность: 01:55:35
Перевод: Профессиональный (дублированный) Bluray
Перевод 2: Авторский (одноголосый закадровый) А.Гаврилов
Перевод 3: Авторский (одноголосый закадровый) В.Горчаков
Перевод 4: Авторский (одноголосый закадровый) Л.Володарский
Субтитры: русские,английские
Оригинальная аудиодорожка: английский
Режиссер: Микаэль Хофстрём / Mikael Håfström
В ролях: Сильвестр Сталлоне, Арнольд Шварценеггер, Джеймс Кэвизел, Фаран Таир, Сэм Нил, Фифти Сент, Винни Джонс, Винсент Д’Онофрио, Эми Райан, Мэтт Джералд
Описание: Один из самых выдающихся мировых специалистов по системам безопасности соглашается на последнюю рисковую операцию: сбежать из суперсекретной высокотехнологичной тюрьмы, которую называют «Гробницей». Преданный Рэй Бреслин вынужден прибегнуть к помощи напарника — заключенного Эмиля Ротмайера, чтобы разработать отчаянный и практически неосуществимый план побега из самой защищенной тюрьмы в мире!
Доп. информация:
Релиз группы:
Сохранены оригинальные главы как на Bluray
Качество видео: BDRip-AVC | План Побега / Escape Plan (2013) 1080p BD-Remux|HD Club|
Формат видео: MKV
Видео: 1130x472 (2:40:1), 23,976 fps, 2098 Кbps, 0.164 bit/pixe
Аудио: 48 kHz, AC3 Dolby Digital, 3/2 (L,C,R,l,r) + LFE ch, ~448.00 kbps avg DUB
Аудио 2: 48 kHz, AC3 Dolby Digital, 3/2 (L,C,R,l,r) + LFE ch, ~448.00 kbps avg | AVO отдельно
Аудио 3: 48 kHz, AC3 Dolby Digital, 3/2 (L,C,R,l,r) + LFE ch, ~448.00 kbps avg | AVO отдельно
Аудио 4: 48 kHz, AC3 Dolby Digital, 3/2 (L,C,R,l,r) + LFE ch, ~448.00 kbps avg | AVO отдельно
Аудио 5: 48 kHz, AC3 Dolby Digital, 3/2 (L,C,R,l,r) + LFE ch, ~448.00 kbps avg ENG
Формат субтитров: softsub (SRT)
Доп. информация о субтитрах: отключаемые

Знаете ли Вы что

• Идея о том, чтобы вместе сняться в фильме, обсуждалась между Сильвестром Сталлоне и Арнольдом Шварценеггером на протяжении многих лет, еще с середины 1980-х. Были написаны различные версии сценария, но, по словам Шварценнегера, их со Сталлоне съемочные графики не совпадали. После того как Шварценнегер занял пост губернатора, а затем исполнил эпизодическую роль в фильме «Неудержимые» (2010), они вернулись к идее о совместной работе.
• Сильвестр Сталлоне повредил сухожилие правой ноги во время съёмок сцены боя.
• Предполагалось, что фильм поставит Антуан Фукуа, а главную роль сыграет Брюс Уиллис.
• Съёмки проходили в Новом Орлеане, Луизиане и Лос-Анджелесе.
• Во время сцены в карцере герой Шварценеггера обращается к Господу и смотрит на Кэвизела, который исполнял главную роль в фильме «Страсти Христовы» (2004).
• Это второй раз, когда Джеймс Кэвизел сыграл злодея.

Ошибки в фильме

• Когда Рэй считал до трёхсот в тюрьме Колорадо, отсчитывая 5 минут, то можно было заметить, что он считает намного медленнее, чем длится 1 секунда. В это же время все камеры наблюдения показывали одно и то же время 15:59, а через несколько секунд другая камера показывала еще время 15:56.

MediaInfo

General
Unique ID : 187664457767004809891977642994619192061 (0x8D2EDC20829ED4AE8A6CC6B1B01912FD)
Complete name : D:\Мои рипы\План побега\Escape Plan by_IVAN@.190282.mkv
Format : Matroska
Format version : Version 4 / Version 2
File size : 2.47 GiB
Duration : 1h 55mn
Overall bit rate : 3 055 Kbps
Movie name : Escape Plan by_IVAN@190282
Encoded date : UTC 2016-02-23 19:50:56
Writing application : mkvmerge v8.8.0 ('Wind at my back') 64bit
Writing library : libebml v1.3.3 + libmatroska v1.4.4
Attachements : cover.jpg
DURATION : 01:45:52.287000000
NUMBER_OF_FRAMES : 1026
NUMBER_OF_BYTES : 34474
_STATISTICS_WRITING_APP : mkvmerge v8.8.0 ('Wind at my back') 64bit
_STATISTICS_WRITING_DATE_UT : 2016-02-23 19:50:56
_STATISTICS_TAGS : BPS DURATION NUMBER_OF_FRAMES NUMBER_OF_BYTES
Video
ID : 1
Format : AVC
Format/Info : Advanced Video Codec
Format profile : High@L4.1
Format settings, CABAC : Yes
Format settings, ReFrames : 11 frames
Codec ID : V_MPEG4/ISO/AVC
Duration : 1h 55mn
Bit rate : 2 098 Kbps
Width : 1 130 pixels
Height : 472 pixels
Display aspect ratio : 2.40:1
Frame rate mode : Constant
Frame rate : 23.976 fps
Color space : YUV
Chroma subsampling : 4:2:0
Bit depth : 8 bits
Scan type : Progressive
Bits/(Pixel*Frame) : 0.164
Stream size : 1.69 GiB (69%)
Title : Escape Plan by_IVAN@190282
Writing library : x264 core 148 r2638kMod 7599210
Encoding settings : cabac=1 / ref=11 / deblock=1:-3:-2 / analyse=0x3:0x133 / me=umh / subme=11 / psy=1 / fade_compensate=0.00 / psy_rd=1.00:0.05 / mixed_ref=1 / me_range=48 / chroma_me=1 / trellis=2 / 8x8dct=1 / cqm=0 / deadzone=21,11 / fast_pskip=0 / chroma_qp_offset=-3 / threads=6 / lookahead_threads=6 / sliced_threads=0 / nr=0 / decimate=1 / interlaced=0 / bluray_compat=0 / constrained_intra=0 / fgo=0 / bframes=16 / b_pyramid=2 / b_adapt=2 / b_bias=0 / direct=3 / weightb=1 / open_gop=0 / weightp=2 / keyint=240 / keyint_min=23 / scenecut=40 / intra_refresh=0 / rc_lookahead=60 / rc=crf / mbtree=0 / crf=17.1000 / qcomp=0.60 / qpmin=0 / qpmax=69 / qpstep=4 / vbv_maxrate=50000 / vbv_bufsize=62500 / crf_max=0.0 / nal_hrd=none / filler=0 / ip_ratio=1.40 / pb_ratio=1.30 / aq=2:1.10
Language : English
Default : Yes
Forced : No
Color range : Limited
Color primaries : BT.709
Transfer characteristics : BT.709
Matrix coefficients : BT.709
DURATION : 01:55:35.721000000
NUMBER_OF_FRAMES : 166291
NUMBER_OF_BYTES : 1869553974
_STATISTICS_WRITING_APP : mkvmerge v8.8.0 ('Wind at my back') 64bit
_STATISTICS_WRITING_DATE_UT : 2016-02-23 19:50:56
_STATISTICS_TAGS : BPS DURATION NUMBER_OF_FRAMES NUMBER_OF_BYTES
Audio #1
ID : 2
Format : AC-3
Format/Info : Audio Coding 3
Mode extension : CM (complete main)
Format settings, Endianness : Big
Codec ID : A_AC3
Duration : 1h 55mn
Bit rate mode : Constant
Bit rate : 448 Kbps
Channel(s) : 6 channels
Channel positions : Front: L C R, Side: L R, LFE
Sampling rate : 48.0 KHz
Compression mode : Lossy
Stream size : 370 MiB (15%)
Title : Dub BD Rus
Default : Yes
Forced : No
Audio #2
ID : 3
Format : AC-3
Format/Info : Audio Coding 3
Mode extension : CM (complete main)
Format settings, Endianness : Big
Codec ID : A_AC3
Duration : 1h 55mn
Bit rate mode : Constant
Bit rate : 448 Kbps
Channel(s) : 6 channels
Channel positions : Front: L C R, Side: L R, LFE
Sampling rate : 48.0 KHz
Compression mode : Lossy
Stream size : 370 MiB (15%)
Title : Eng
Language : English
Default : No
Forced : No
Text #1
ID : 4
Format : UTF-8
Codec ID : S_TEXT/UTF8
Codec ID/Info : UTF-8 Plain Text
Title : Rus
Default : No
Forced : No
Text #2
ID : 5
Format : UTF-8
Codec ID : S_TEXT/UTF8
Codec ID/Info : UTF-8 Plain Text
Title : Eng
Language : English
Default : No
Forced : No
Menu
00:00:00.000 : :Chapter 1
00:06:33.643 : :Chapter 2
00:15:40.940 : :Chapter 3
00:19:50.439 : :Chapter 4
00:26:22.706 : :Chapter 5
00:33:08.111 : :Chapter 6
00:39:14.310 : :Chapter 7
00:45:41.697 : :Chapter 8
00:50:07.171 : :Chapter 9
00:58:59.494 : :Chapter 10
01:06:44.834 : :Chapter 11
01:13:51.135 : :Chapter 12
01:21:04.359 : :Chapter 13
01:27:58.523 : :Chapter 14
01:35:35.188 : :Chapter 15
01:42:14.879 : :Chapter 16

x264 log

VIDEO ENCODING
x264 [info]: frame I:1461 Avg QP:14.86 size: 60856 PSNR Mean Y:50.14 U:54.52 V:54.64 Avg:51.03 Global:50.15
x264 [info]: frame P:40123 Avg QP:15.54 size: 23075 PSNR Mean Y:48.77 U:54.44 V:54.54 Avg:49.72 Global:48.80
x264 [info]: frame B:124707 Avg QP:18.22 size: 6855 PSNR Mean Y:48.53 U:54.91 V:55.02 Avg:49.55 Global:48.18
x264 [info]: consecutive B-frames: 4.1% 4.5% 12.7% 17.0% 19.5% 28.0% 5.1% 2.1% 1.9% 1.3% 0.9% 0.7% 0.6% 0.5% 0.2% 0.2% 0.6%
x264 [total]: encoded 166291 frames, 6.67 fps, 2156.44 kb/s, duration 6:55:26.62

Скриншот c названием фильма

Скриншоты

Торрент файл перезалит,замена глав на оригинальные! Убедительная просьба пожалуйста кто скачал не бросайте раздачу!!!
 GOLD TORRENT! DOWNLOAD TRAFFIC DOES NOT CONSIDER! 
Torrent: Registered [ 2017-10-04 03:18 ]   · 754F6683CDE7A9B022113859F0713C142C4EDE6E

Download .torrent

Download

19 KB

Status: checked
Completed: 7 times
Size: 3.55 GB
Поделиться:
terms.php
[Profile] [PM]
Display posts:    
Reply to topic

Current time is: 12-Dec 15:07

All times are UTC + 3



You cannot post new topics in this forum
You cannot reply to topics in this forum
You cannot edit your posts in this forum
You cannot delete your posts in this forum
You cannot vote in polls in this forum
You cannot attach files in this forum
You can download files in this forum