Тёмная башня / The Dark Tower (2017) BDRip-AVC от New-Team | iTunes

Reply to topic
DL-List and Torrent activity
Size:  746 MB   |    Registered:  3 years 1 month   |    Completed:  0 times
Seeders:  7  [  0 KB/s  ]   Leechers:  3  [  0 KB/s  ]   Show peers in full details
 
   
 
 
Author Message

admin ®

Gender: Male

Longevity: 3 years 2 months

Posts: 10115

Post 30-Oct-2017 00:55

[Quote]

Тёмная башня
The Dark Tower
«Есть и другие миры, кроме этих»

Страна: США
Жанр: ужасы, фантастика, фэнтези, боевик, приключения, вестерн
Год выпуска: 2017
Продолжительность: 01:34:44
Перевод: Профессиональный (полное дублирование) [iTunes]
Субтитры: русские (форсированные, полные)
Оригинальная аудиодорожка: нет
Режиссер: Николай Арсель / Nikolaj Arcel
В ролях: Идрис Эльба, Мэттью МакКонахи, Том Тейлор, Клаудия Ким, Фрэн Кранц, Эбби Ли, Джеки Эрл Хейли, Кэтрин Уинник, Деннис Хейсбёрт, Майкл Барбиери, Хосе Суньига, Николас Хэмилтон
Описание:
Наш мир - не единственный из существующих. Заклятые враги Роланд Дискейн, последний из ордена стрелков, и Уолтер О’Дим, известный также как Человек в черном, ведут извечную борьбу. На кону - мифическая Темная Башня, последний оплот и надежда вселенной, без которой мир будет повержен в полный хаос и разрушение. Силам добра и зла суждено столкнуться в последней схватке, ведь Роланд Дискейн - единственный, кому под силу остановить Человека в черном, прежде чем тот разрушит Темную Башню.

Автор рипа: stalkerok
Сэмпл
Качество видео: BDRip-AVC [The.Dark.Tower.2017.D.BDREMUX.1080p.ExKinoRay]
Формат видео: MKV
Видео кодек: AVC
Аудио кодек: AAC
Видео: 984 Кбит/сек, 840*350 (2,40:1), в 23,976 (24000/1001) кадра/сек, AVC
Аудио: русский, 114 Кбит/сек, 48,0 КГц, 2 канала, AAC (LC)
Навигация по главам: есть

x264/MediaInfo

x264 [info]: frame I:1365 Avg QP:17.99 size: 34250
x264 [info]: frame P:31235 Avg QP:20.32 size: 10837
x264 [info]: frame B:103696 Avg QP:23.23 size: 3026
Общее
Уникальный идентификатор : 213158167683376292976310649897881983962 (0xA05CC511D2C830AAAB9E44DEF8845BDA)
Полное имя : M:!Rips2017The Dark Tower (2017)The.Dark.Tower.2017.BDRip-AVC.RUS..stalkerok.new-team.mkv
Формат : Matroska
Версия формата : Version 4 / Version 2
Размер файла : 746 Мбайт
Продолжительность : 1 ч. 34 м.
Общий поток : 1100 Кбит/сек
Название фильма : The Dark Tower (2017) (Rip by stalkerok)
Дата кодирования : UTC 2017-10-29 10:00:21
Программа кодирования : mkvmerge v8.6.1 ('Flying') 64bit
Библиотека кодирования : libebml v1.3.3 + libmatroska v1.4.4
Видео
Идентификатор : 1
Формат : AVC
Формат/Информация : Advanced Video Codec
Профиль формата : High@L4.1
Параметр CABAC формата : Да
Параметр ReFrames формата : 16 кадров
Идентификатор кодека : V_MPEG4/ISO/AVC
Продолжительность : 1 ч. 34 м.
Битрейт : 984 Кбит/сек
Ширина : 840 пикселей
Высота : 350 пикселей
Соотношение сторон : 2,40:1
Режим частоты кадров : Постоянный
Частота кадров : 23,976 (24000/1001) кадра/сек
Цветовое пространство : YUV
Субдискретизация насыщенности : 4:2:0
Битовая глубина : 8 бит
Тип развёртки : Прогрессивная
Бит/(Пиксели*Кадры) : 0.140
Размер потока : 667 Мбайт (89%)
Заголовок : The Dark Tower (2017) (Rip by stalkerok)
Библиотека кодирования : x264 core 150 r2833kMod df79067
Настройки программы : cabac=1 / ref=16 / deblock=1:-3:-2 / analyse=0x3:0x133 / me=umh / subme=11 / psy=1 / fade_compensate=0.00 / psy_rd=1.00:0.00 / mixed_ref=1 / me_range=32 / chroma_me=1 / trellis=2 / 8x8dct=1 / cqm=0 / deadzone=21,11 / fast_pskip=0 / chroma_qp_offset=-2 / threads=11 / lookahead_threads=2 / sliced_threads=0 / nr=0 / decimate=1 / interlaced=0 / bluray_compat=0 / constrained_intra=0 / bframes=16 / b_pyramid=2 / b_adapt=2 / b_bias=0 / direct=3 / weightb=1 / open_gop=0 / weightp=2 / keyint=240 / keyint_min=23 / scenecut=40 / intra_refresh=0 / rc_lookahead=60 / rc=crf / mbtree=0 / crf=19.4000 / qcomp=0.65 / qpmin=0 / qpmax=69 / qpstep=4 / vbv_maxrate=50000 / vbv_bufsize=62500 / crf_max=0.0 / nal_hrd=none / filler=0 / ip_ratio=1.40 / pb_ratio=1.30 / aq=3:0.90 / zones=125976,136295,q=36
Default : Да
Forced : Нет
Аудио
Идентификатор : 2
Формат : AAC
Формат/Информация : Advanced Audio Codec
Профиль формата : LC
Идентификатор кодека : A_AAC
Продолжительность : 1 ч. 34 м.
Битрейт : 114 Кбит/сек
Каналы : 2 канала
Расположение каналов : Front: L R
Частота : 48,0 КГц
Частота кадров : 46,875 кадров/сек (1024 spf)
Метод сжатия : С потерями
Задержка видео : 9 мс.
Размер потока : 77,3 Мбайт (10%)
Язык : Russian
Default : Да
Forced : Нет
Текст #1
Идентификатор : 3
Формат : UTF-8
Идентификатор кодека : S_TEXT/UTF8
Идентификатор кодека/Информация : UTF-8 Plain Text
Продолжительность : 1 ч. 33 м.
Битрейт : 0 бит/сек
Count of elements : 10
Размер потока : 575 байт (0%)
Заголовок : Forced
Язык : Russian
Default : Да
Forced : Нет
Текст #2
Идентификатор : 4
Формат : UTF-8
Идентификатор кодека : S_TEXT/UTF8
Идентификатор кодека/Информация : UTF-8 Plain Text
Продолжительность : 1 ч. 33 м.
Битрейт : 57 бит/сек
Count of elements : 889
Размер потока : 39,3 Кбайт (0%)
Язык : Russian
Default : Нет
Forced : Нет
Меню
00:00:00.000 : en:00:00:00.000
00:05:51.643 : en:00:05:51.643
00:10:36.094 : en:00:10:36.094
00:16:33.618 : en:00:16:33.618
00:21:54.897 : en:00:21:54.897
00:25:35.534 : en:00:25:35.534
00:31:01.985 : en:00:31:01.985
00:36:25.183 : en:00:36:25.183
00:40:49.822 : en:00:40:49.822
00:46:02.134 : en:00:46:02.134
00:53:18.404 : en:00:53:18.404
00:58:42.853 : en:00:58:42.853
01:03:51.119 : en:01:03:51.119
01:10:37.650 : en:01:10:37.650
01:15:53.174 : en:01:15:53.174
01:21:15.204 : en:01:21:15.204

Скриншоты

 GOLD TORRENT! DOWNLOAD TRAFFIC DOES NOT CONSIDER! 
Torrent: Registered [ 2017-10-30 00:55 ]   · 126268154B85FBC6AB23A491CF0848BCDE2C53D7

Download .torrent

Download

16 KB

Status: checked
Completed: 0 times
Size: 746 MB
Поделиться:
terms.php
[Profile] [PM]
Display posts:    
Reply to topic

Current time is: 01-Dec 18:25

All times are UTC + 3



You cannot post new topics in this forum
You cannot reply to topics in this forum
You cannot edit your posts in this forum
You cannot delete your posts in this forum
You cannot vote in polls in this forum
You cannot attach files in this forum
You can download files in this forum