Викинг (Андрей Кравчук) [2016, Россия, история, драма, BDRip 720p] [Hybrid] + Sub Rus, Ger, Eng + Original Rus

Reply to topic
DL-List and Torrent activity
Size:  9.28 GB   |    Registered:  2 years 11 months   |    Completed:  0 times
Seeders:  1  [  0 KB/s  ]   Show peers in full details
 
   
 
 
Author Message

admin ®

Gender: Male

Longevity: 3 years

Posts: 10018

Post 26-Oct-2017 07:13

[Quote]

Викинг
Страна: Россия
Жанр: история, драма
Год выпуска: 2016
Продолжительность: 02:22:40-Перевод: Не требуется
Субтитры: Russian (Forced), English, German
Оригинальная аудиодорожка: русский-Режиссер: Андрей Кравчук-В ролях: Данила Козловский, Светлана Ходченкова, Максим Суханов, Игорь Петренко, Андрей Смоляков, Владимир Епифанцев, Александра Бортич, Кирилл Плетнёв, Александр Устюгов, Ростислав Бершауэр
Описание: Раннее Средневековье. Время тяжелых мечей и темных законов крови. Правящий род в раздоре. Вина за случайную смерть брата легла на Великого Князя. По закону мстить ему должен младший брат — бастард. За отказ убивать он заплатит всем, что у него было, потому что «для мира нужно больше мечей, чем для войны».-Релиз от:
-Энкод от JewelBox!-Тип релиза: BDRip 720p
Контейнер: MKV-Видео: 1280x534 (2.40:1), 23,976 fps, MPEG-4 AVC, ~ 7617 kbps, 0.465 Bits/(Pixel*Frame)-Аудио: Russian: 48 kHz, DTS, 3/2 (L,C,R,l,r) + LFE ch, ~1509.00 kbps avg

Дополнительно

Сохранены оригинальные главы как на Blu-ray.
Main video from GER source.
RUS source instead of wrong duplicate scene in GER (210 frames on 0:01:44-0:01:53)
and for episodes with german text (SmoothLevels & f3kdb were used).
Thanks to Juvelir for his great help with the script.
English subs aren't official, it's the result of hard work of several fans.
Stylistic russian forced subtittles made by hand,
the goal was to create identical subs in relation to hardsub in RUS source.

MediaInfo

General
Unique ID : 248815131018870555825982822602152937603 (0xBB300D17CFCB2EEC8F2A53F15AB10883)
Complete name : D:\Viking.2016.Hybrid.720p.mkv
Format : Matroska
Format version : Version 2
File size : 9.28 GiB
Duration : 2 h 22 min
Overall bit rate : 9 311 kb/s
Movie name : Викинг / Viking (2016) - Release for HDCLUB
Encoded date : UTC 2017-06-15 14:51:12
Writing application : mkvmerge v3.4.0 ('Rapunzel') сборка от May 15 2010 09:38:20
Writing library : libebml v0.8.0 + libmatroska v0.9.0
Cover : Yes
Attachments : Romul.TTF / Viking mini.ttf / cover.jpg
Video
ID : 1
Format : AVC
Format/Info : Advanced Video Codec
Format profile : High@L4.1
Format settings, CABAC : Yes
Format settings, ReFrames : 12 frames
Codec ID : V_MPEG4/ISO/AVC
Duration : 2 h 22 min
Bit rate : 7 617 kb/s
Width : 1 280 pixels
Height : 534 pixels
Display aspect ratio : 2.40:1
Frame rate mode : Constant
Frame rate : 23.976 (24000/1001) FPS
Color space : YUV
Chroma subsampling : 4:2:0
Bit depth : 8 bits
Scan type : Progressive
Bits/(Pixel*Frame) : 0.465
Stream size : 7.59 GiB (82%)
Title : Викинг / Viking (2016) - JewelBox - Release for HDCLUB
Writing library : x264 core 148 r2762+56 6284cf3 t_mod_Custom [8-bit@all X86_64]
Encoding settings : cabac=1 / ref=12 / deblock=1:-3:-3 / analyse=0x3:0x133 / me=umh / subme=11 / psy=1 / fade_compensate=0.00 / psy_rd=1.00:0.00 / mixed_ref=1 / me_range=32 / chroma_me=1 / trellis=2 / 8x8dct=1 / cqm=0 / deadzone=21,11 / fast_pskip=0 / chroma_qp_offset=-2 / threads=6 / lookahead_threads=1 / sliced_threads=0 / nr=0 / decimate=1 / interlaced=0 / bluray_compat=0 / constrained_intra=0 / fgo=0 / bframes=9 / b_pyramid=2 / b_adapt=2 / b_bias=0 / direct=3 / weightb=1 / open_gop=0 / weightp=2 / keyint=240 / keyint_min=23 / scenecut=40 / intra_refresh=0 / rc_lookahead=60 / rc=crf / mbtree=0 / crf=17.4500 / qcomp=0.70 / qpmin=0:0:0 / qpmax=69:69:69 / qpstep=4 / vbv_maxrate=62500 / vbv_bufsize=78125 / crf_max=0.0 / nal_hrd=none / filler=0 / ip_ratio=1.30 / pb_ratio=1.20 / aq=3:1.00 / aq-sensitivity=10.00 / aq-factor=1.00:1.00:1.00 / aq2=0 / aq3=0
Language : Russian
Default : Yes
Forced : Yes
Color range : Limited
Color primaries : BT.709
Transfer characteristics : BT.709
Matrix coefficients : BT.709
Audio
ID : 2
Format : DTS
Format/Info : Digital Theater Systems
Mode : 16
Format settings, Endianness : Big
Codec ID : A_DTS
Duration : 2 h 22 min
Bit rate mode : Constant
Bit rate : 1 509 kb/s
Channel(s) : 6 channels
Channel positions : Front: L C R, Side: L R, LFE
Sampling rate : 48.0 kHz
Frame rate : 93.750 FPS (512 spf)
Bit depth : 24 bits
Compression mode : Lossy
Stream size : 1.50 GiB (16%)
Title : DTS 5.1 @ 1509 kbps - Original
Language : Russian
Default : Yes
Forced : No
Text #1
ID : 3
Format : ASS
Codec ID : S_TEXT/ASS
Codec ID/Info : Advanced Sub Station Alpha
Compression mode : Lossless
Title : Forced
Language : Russian
Default : Yes
Forced : No
Text #2
ID : 4
Format : UTF-8
Codec ID : S_TEXT/UTF8
Codec ID/Info : UTF-8 Plain Text
Title : Forced
Language : Russian
Default : No
Forced : No
Text #3
ID : 5
Format : UTF-8
Codec ID : S_TEXT/UTF8
Codec ID/Info : UTF-8 Plain Text
Title : Full
Language : English
Default : No
Forced : No
Text #4
ID : 6
Format : UTF-8
Codec ID : S_TEXT/UTF8
Codec ID/Info : UTF-8 Plain Text
Title : Full
Language : German
Default : No
Forced : No
Menu
00:00:00.000 : :Chapter 01
00:14:33.998 : :Chapter 02
00:25:23.980 : :Chapter 03
00:37:35.211 : :Chapter 04
00:48:08.218 : :Chapter 05
00:59:10.046 : :Chapter 06
01:08:41.367 : :Chapter 07
01:19:54.831 : :Chapter 08
01:31:57.720 : :Chapter 09
01:45:39.583 : :Chapter 10
01:58:02.742 : :Chapter 11
02:13:05.102 : :Chapter 12
02:22:13.483 : :Chapter 13

Скриншоты


 GOLD TORRENT! DOWNLOAD TRAFFIC DOES NOT CONSIDER! 
Torrent: Registered [ 2017-10-26 07:13 ]   · 3300CE2CAA9EBF17B227CFEE4D5220B0B9E0DD95

Download .torrent

Download

47 KB

Status: checked
Completed: 0 times
Size: 9.28 GB
Поделиться:
terms.php
[Profile] [PM]
Display posts:    
Reply to topic

Current time is: 30-Sep 04:47

All times are UTC + 3



You cannot post new topics in this forum
You cannot reply to topics in this forum
You cannot edit your posts in this forum
You cannot delete your posts in this forum
You cannot vote in polls in this forum
You cannot attach files in this forum
You can download files in this forum