Прометей / Prometheus (2012) BDRip 1080p

Reply to topic
DL-List and Torrent activity
Size:  7.76 GB   |    Registered:  2 years 11 months   |    Completed:  0 times
Seeders:  75  [  0 KB/s  ]   Leechers:  6  [  0 KB/s  ]   Show peers in full details
 
   
 
 
Author Message

admin ®

Gender: Male

Longevity: 3 years

Posts: 10018

Post 26-Oct-2017 05:29

[Quote]

Информация о фильме
Название: Прометей
Оригинальное название: Prometheus
Год выхода: 2012
Жанр: фантастика, триллер, приключения
Режиссер: Ридли Скотт
В ролях: Нуми Рапас, Майкл Фассбендер, Шарлиз Терон, Идрис Эльба, Гай Пирс, Логан Маршалл-Грин, Шон Харрис, Рейф Сполл, Иман Эллиотт, Бенедикт Вонг
О фильме: В поисках сакрального знания группа ученых отправляется в самые темные и неизведанные чертоги вселенной. Именно там, в отдаленных мирах, находясь на пределе своих умственных и физических возможностей, им предстоит вступить в безжалостную схватку за будущее всего человечества…

Выпущено: Twentieth Century Fox
Продолжительность: 02:03:46
Перевод: Дублированный (лицензия)
Файл
Кодек: x264
Качество: BDRip (источник: Blu-ray Disc)
Видео: 1920x800 (2,40:1), 23.976 fps, 7697 kbps
Аудио #1: AC-3, 6 ch, 640 kbps (Rus)
Аудио #2: AC-3, 6 ch, 640 kbps (Eng)
Субтитры: Русские, Английские

Скриншоты

MI

Общее
Уникальный идентификатор : 177496169590381276951037552902704636311 (0x858884D042E3AAFEB2246FFCE7FAA197)
Полное имя : Prometheus.2012.BDRip.1080p.Rus.Eng.mkv
Формат : Matroska
Версия формата : Version 2
Размер файла : 7,76 Гбайт
Продолжительность : 2 ч. 3 м.
Общий поток : 8977 Кбит/сек
Название фильма : Прометей / Prometheus (2012)
Дата кодирования : UTC 2012-09-29 10:22:59
Программа кодирования : mkvmerge v5.8.0 ('No Sleep / Pillow') built on Sep 2 2012 15:37:04
Библиотека кодирования : libebml v1.2.3 + libmatroska v1.3.0
Видео
Идентификатор : 1
Формат : AVC
Формат/Информация : Advanced Video Codec
Профиль формата : High@L4.1
Параметр CABAC формата : Да
Параметр ReFrames формата : 5 кадров
Идентификатор кодека : V_MPEG4/ISO/AVC
Продолжительность : 2 ч. 3 м.
Битрейт : 7697 Кбит/сек
Ширина : 1920 пикселей
Высота : 800 пикселей
Соотношение сторон : 2,40:1
Частота кадров : 23,976 кадра/сек
Цветовое пространство : YUV
Субдискретизация насыщенности : 4:2:0
Битовая глубина : 8 бит
Тип развёртки : Прогрессивная
Бит/(Пиксели*Кадры) : 0.209
Размер потока : 6,50 Гбайт (84%)
Заголовок : Release by AlexKa
Библиотека кодирования : x264 core 128 r2216 198a7ea
Настройки программы : cabac=1 / ref=5 / deblock=1:-3:-3 / analyse=0x3:0x133 / me=umh / subme=11 / psy=1 / psy_rd=1.00:0.00 / mixed_ref=1 / me_range=48 / chroma_me=1 / trellis=2 / 8x8dct=1 / cqm=0 / deadzone=21,11 / fast_pskip=0 / chroma_qp_offset=-2 / threads=12 / lookahead_threads=2 / sliced_threads=0 / nr=0 / decimate=0 / interlaced=0 / bluray_compat=0 / constrained_intra=0 / bframes=5 / b_pyramid=2 / b_adapt=2 / b_bias=0 / direct=3 / weightb=1 / open_gop=0 / weightp=2 / keyint=240 / keyint_min=23 / scenecut=40 / intra_refresh=0 / rc=2pass / mbtree=0 / bitrate=7697 / ratetol=1.0 / qcomp=0.60 / qpmin=0 / qpmax=69 / qpstep=4 / cplxblur=20.0 / qblur=0.5 / ip_ratio=1.40 / pb_ratio=1.30 / aq=1:0.70
Язык : English
Аудио #1
Идентификатор : 2
Формат : AC-3
Формат/Информация : Audio Coding 3
Расширение режима : CM (complete main)
Идентификатор кодека : A_AC3
Продолжительность : 2 ч. 3 м.
Вид битрейта : Постоянный
Битрейт : 640 Кбит/сек
Каналы : 6 каналов
Расположение каналов : Front: L C R, Side: L R, LFE
Частота : 48,0 КГц
Битовая глубина : 16 бит
Метод сжатия : С потерями
Размер потока : 567 Мбайт (7%)
Заголовок : Rus
Язык : Russian
Аудио #2
Идентификатор : 3
Формат : AC-3
Формат/Информация : Audio Coding 3
Расширение режима : CM (complete main)
Идентификатор кодека : A_AC3
Продолжительность : 2 ч. 3 м.
Вид битрейта : Постоянный
Битрейт : 640 Кбит/сек
Каналы : 6 каналов
Расположение каналов : Front: L C R, Side: L R, LFE
Частота : 48,0 КГц
Битовая глубина : 16 бит
Метод сжатия : С потерями
Размер потока : 567 Мбайт (7%)
Заголовок : Eng
Язык : English
Текст #1
Идентификатор : 4
Формат : UTF-8
Идентификатор кодека : S_TEXT/UTF8
Идентификатор кодека/Информация : UTF-8 Plain Text
Заголовок : Rus
Язык : Russian
Текст #2
Идентификатор : 5
Формат : UTF-8
Идентификатор кодека : S_TEXT/UTF8
Идентификатор кодека/Информация : UTF-8 Plain Text
Заголовок : Eng
Язык : English
Меню
00:00:00.000 : :Chapter 01
00:05:13.145 : :Chapter 02
00:07:44.881 : :Chapter 03
00:11:31.523 : :Chapter 04
00:15:09.782 : :Chapter 05
00:20:04.912 : :Chapter 06
00:22:32.809 : :Chapter 07
00:27:43.119 : :Chapter 08
00:31:57.832 : :Chapter 09
00:34:10.840 : :Chapter 10
00:37:53.228 : :Chapter 11
00:40:45.359 : :Chapter 12
00:45:49.329 : :Chapter 13
00:48:47.925 : :Chapter 14
00:50:23.061 : :Chapter 15
00:53:56.399 : :Chapter 16
00:56:32.222 : :Chapter 17
00:59:31.609 : :Chapter 18
01:01:29.185 : :Chapter 19
01:04:17.562 : :Chapter 20
01:06:01.457 : :Chapter 21
01:08:57.883 : :Chapter 22
01:11:13.519 : :Chapter 23
01:15:10.631 : :Chapter 24
01:17:06.037 : :Chapter 25
01:25:02.305 : :Chapter 26
01:27:09.349 : :Chapter 27
01:30:10.363 : :Chapter 28
01:32:43.724 : :Chapter 29
01:35:23.134 : :Chapter 30
01:37:46.860 : :Chapter 31
01:40:46.372 : :Chapter 32
01:43:46.220 : :Chapter 33
01:48:28.793 : :Chapter 34
01:52:08.095 : :Chapter 35
01:58:06.287 : :Chapter 36
02:03:46.168 : :Chapter 37

x264

x264 [info]: frame I:1693 Avg QP:13.92 size:189468
x264 [info]: frame P:41719 Avg QP:17.03 size: 76255
x264 [info]: frame B:134644 Avg QP:19.13 size: 27045
 GOLD TORRENT! DOWNLOAD TRAFFIC DOES NOT CONSIDER! 
Torrent: Registered [ 2017-10-26 05:29 ]   · 9E7DEAD78781C5BB2326EA0D483E69EBC17D387F

Download .torrent

Download

40 KB

Status: checked
Completed: 0 times
Size: 7.76 GB
Поделиться:
terms.php
[Profile] [PM]
Display posts:    
Reply to topic

Current time is: 01-Oct 17:56

All times are UTC + 3



You cannot post new topics in this forum
You cannot reply to topics in this forum
You cannot edit your posts in this forum
You cannot delete your posts in this forum
You cannot vote in polls in this forum
You cannot attach files in this forum
You can download files in this forum