Хранилище / The Vault (2017) WEB-DL 1080p от ExKinoRay | iTunes

Reply to topic
DL-List and Torrent activity
Size:  3.44 GB   |    Registered:  2 years 11 months   |    Completed:  0 times
Seeders:  28  [  0 KB/s  ]   Leechers:  7  [  0 KB/s  ]   Show peers in full details
 
   
 
 
Author Message

admin ®

Gender: Male

Longevity: 3 years

Posts: 10018

Post 26-Oct-2017 04:27

[Quote]

Информация о фильме
Название: Хранилище
Оригинальное название: The Vault
Год выхода: 2017
Жанр: Триллер, ужасы
Режиссер: Дэн Буш
В ролях: Джеймс Франко, Тэрин Мэннинг, Франческа Фишер-Иствуд, Скотт Хэйз, К Орианка Килчер, Джефф Гам, Клифтон Коллинз мл., Кит Лонекер, Джилл Джейн Клементс
О фильме:
Во время ограбления банка преступники вскрывают старое хранилище, которым давно никто не пользовался. Открыв запретную дверь, они выпускают в мир призраков, охраняющих находящиеся там сокровища.

Страна: США
Студия: Redwire Pictures, Content Media, Culmination Productions
Продолжительность: 01:31:38
Перевод: Профессиональный многоголосый | iTunes
Файл
Качество: WEB-DL 1080p
Видео: MPEG-4 AVC, 1908x792, 4599 Kbit/s, 23.976 fps
Звук:
Аудио #01: 48 kHz, AC3, 5.1, 384 Kbps | iTunes | RUS |
Аудио #02: 48 kHz, AC3, 5.1, 384 Kbps | Оригинал | ENG |
Субтитры: Английские

Скриншоты

MI

General
Unique ID : 251368970897836554979315167582900461433 (0xBD1BE71ED4C0A0E79E384C8D452C1F79)
Complete name : G:The.Vault.2017.WEB-DL.1080p.ExKinoRay.mkv
Format : Matroska
Format version : Version 4 / Version 2
File size : 3.44 GiB
Duration : 1 h 31 min
Overall bit rate : 5 368 kb/s
Encoded date : UTC 2017-10-25 09:02:28
Writing application : mkvmerge v17.0.0 ('Be Ur Friend') 64-bit
Writing library : libebml v1.3.5 + libmatroska v1.4.8
Video
ID : 1
Format : AVC
Format/Info : Advanced Video Codec
Format profile : High@L4
Format settings : CABAC / 5 Ref Frames
Format settings, CABAC : Yes
Format settings, RefFrames : 5 frames
Codec ID : V_MPEG4/ISO/AVC
Duration : 1 h 31 min
Bit rate : 4 599 kb/s
Width : 1 908 pixels
Height : 792 pixels
Display aspect ratio : 2.40:1
Frame rate mode : Constant
Frame rate : 23.976 FPS
Color space : YUV
Chroma subsampling : 4:2:0
Bit depth : 8 bits
Scan type : Progressive
Bits/(Pixel*Frame) : 0.127
Stream size : 2.94 GiB (86%)
Language : English
Default : Yes
Forced : No
Color range : Limited
Color primaries : BT.709
Transfer characteristics : BT.709
Matrix coefficients : BT.709
Audio #1
ID : 2
Format : AC-3
Format/Info : Audio Coding 3
Format settings, Endianness : Big
Codec ID : A_AC3
Duration : 1 h 31 min
Bit rate mode : Constant
Bit rate : 384 kb/s
Channel(s) : 6 channels
Channel positions : Front: L C R, Side: L R, LFE
Sampling rate : 48.0 kHz
Frame rate : 31.250 FPS (1536 SPF)
Bit depth : 16 bits
Compression mode : Lossy
Stream size : 251 MiB (7%)
Title : iTunes
Language : Russian
Service kind : Complete Main
Default : Yes
Forced : No
Audio #2
ID : 3
Format : AC-3
Format/Info : Audio Coding 3
Format settings, Endianness : Big
Codec ID : A_AC3
Duration : 1 h 31 min
Bit rate mode : Constant
Bit rate : 384 kb/s
Channel(s) : 6 channels
Channel positions : Front: L C R, Side: L R, LFE
Sampling rate : 48.0 kHz
Frame rate : 31.250 FPS (1536 SPF)
Bit depth : 16 bits
Compression mode : Lossy
Stream size : 252 MiB (7%)
Title : Original
Language : English
Service kind : Complete Main
Default : No
Forced : No
Text
ID : 4
Format : UTF-8
Codec ID : S_TEXT/UTF8
Codec ID/Info : UTF-8 Plain Text
Duration : 1 h 28 min
Bit rate : 44 b/s
Count of elements : 1150
Stream size : 29.0 KiB (0%)
Title : Full
Language : English
Default : No
Forced : No
Menu
00:00:00.000 : en:1
00:03:18.000 : en:2
00:13:14.000 : en:3
00:23:49.000 : en:4
00:33:41.000 : en:5
00:44:25.000 : en:6
00:53:08.000 : en:7
01:03:24.000 : en:8
01:14:13.000 : en:9
01:28:38.000 : en:10
 GOLD TORRENT! DOWNLOAD TRAFFIC DOES NOT CONSIDER! 
Torrent: Registered [ 2017-10-26 04:27 ]   · 75397051410E64484297519723E392DD332BBCF7

Download .torrent

Download

18 KB

Status: checked
Completed: 0 times
Size: 3.44 GB
Поделиться:
terms.php
[Profile] [PM]
Display posts:    
Reply to topic

Current time is: 29-Sep 09:55

All times are UTC + 3



You cannot post new topics in this forum
You cannot reply to topics in this forum
You cannot edit your posts in this forum
You cannot delete your posts in this forum
You cannot vote in polls in this forum
You cannot attach files in this forum
You can download files in this forum