Охота / The Bad Shepherd (2024) WEB-DL 1080p от ELEKTRI4KA | D

Ответить на тему
Статистика раздачи
Размер:  3.62 GB   |    Зарегистрирован:  26 дней   |    Скачан:  0 раз
Сидов:  153  [  0 KB/s  ]   Личеров:  9  [  0 KB/s  ]   Подробная статистика пиров
 
   
 
 
Автор Сообщение

admin ®

Статус: Не в сети

Стаж: 6 лет 9 месяцев

Сообщений: 23696

Репутация: 0 [+] [-]

Откуда: Россия

Создавать темы 16-Июн-2024 11:15 | #1

[Цитировать]

«Друзья находят сумку с деньгами и не могут решить, что с ней делать. Психологический триллер о сложном выборе»
Информация о фильме
Название: Охота
Оригинальное название: The Bad Shepherd
Год выхода: 2024
Жанр: триллер
Режиссер: Гео Сантини
В ролях: Христос Калабогиас, Джастин Тайте, Джео Сантини
О фильме: Друзья Пол, Джон, Леонард и Трэвис отправляются далеко в лес на охоту. Все планы идут под откос, когда Трэвис сбивает идущую вдоль дороги незнакомку. Осмотрев тело, друзья понимают, что девушка была ранена еще до столкновения, а ее сумка полна денег. Кто-то предлагает оставить мертвую незнакомку на дороге, кто-то хочет вызвать полицию, а кто-то — взять доллары и сбежать. В компании намечается раздор. Но очень скоро друзей находит некто, странным образом знающий все их секреты. Также этот человек утверждает, что владелец сумки — он. Как поступят герои? Будут ли они сражаться за чужие деньги или предпочтут сбежать?

Выпущено: США / Yellow Tape Media Group
Продолжительность: 01:31:02
Озвучивание: Дублированное | Официальное
Файл
Формат: MKV
Качество: WEB-DL 1080p
Видео: MPEG-4 AVC, 5000 Kb/s, 1920x804
Аудио: Russian: AC3, 384 Kb/s (6 ch) / E-AC3, 384 Kb/s (6 ch)
Субтитры: English
Дополнительно: Нет

Инфо-файл:

Complete name: Ohota.2024.WEB-DL.1080p.ELEKTRI4KA.mkv
Format: Matroska
Format version: Version 4
File size: 3.62 GiB
Duration: 1 h 31 min
Overall bit rate: 5 700 kb/s
Movie name: Ohota.2024.WEB-DL.1080p.ELEKTRI4KA.
Encoded date: UTC 2024-06-15 10:51:59
Writing application: mkvmerge v8.3.0 ('Over the Horizon') 64bit
Writing library: libebml v1.3.1 + libmatroska v1.4.2
Video
ID: 1
Format: AVC
Format/Info: Advanced Video Codec
Format profile: High@L4
Format settings: CABAC / 3 Ref Frames
Format settings, CABAC: Yes
Format settings, RefFrames: 3 frames
Codec ID: V_MPEG4/ISO/AVC
Duration: 1 h 31 min
Bit rate: 5 000 kb/s
Width: 1 920 pixels
Height: 804 pixels
Display aspect ratio: 2.40:1
Frame rate mode: Constant
Frame rate: 23.976 (24000/1001) FPS
Color space: YUV
Chroma subsampling: 4:2:0
Bit depth: 8 bits
Scan type: Progressive
Bits/(Pixel*Frame): 0.135
Stream size: 3.14 GiB (86%)
Writing library: x264 core 164 r3095 baee400
Encoding settings: cabac=1 / ref=4 / deblock=1:-1:-1 / analyse=0x3:0x133 / me=umh / subme=9 / psy=1 / psy_rd=0.40:1.00 / mixed_ref=1 / me_range=24 / chroma_me=1 / trellis=0 / 8x8dct=1 / cqm=0 / deadzone=21, 11 / fast_pskip=1 / chroma_qp_offset=-2 / threads=3 / lookahead_threads=1 / sliced_threads=0 / nr=0 / decimate=1 / interlaced=0 / bluray_compat=0 / stitchable=1 / constrained_intra=0 / bframes=8 / b_pyramid=1 / b_adapt=0 / b_bias=0 / direct=3 / weightb=1 / open_gop=0 / weightp=2 / keyint=71 / keyint_min=36 / scenecut=0 / intra_refresh=0 / rc_lookahead=40 / rc=2pass / mbtree=1 / bitrate=5000 / ratetol=1.0 / qcomp=0.80 / qpmin=1 / qpmax=69 / qpstep=4 / cplxblur=20.0 / qblur=0.5 / vbv_maxrate=7500 / vbv_bufsize=10000 / nal_hrd=none / filler=0 / ip_ratio=1.40 / aq=1:1.00
Default: Yes
Forced: No
Color range: Limited
Color primaries: BT.709
Transfer characteristics: BT.709
Matrix coefficients: BT.709
Audio #1
ID: 2
Format: AC-3
Format/Info: Audio Coding 3
Commercial name: Dolby Digital
Codec ID: A_AC3
Duration: 1 h 31 min
Bit rate mode: Constant
Bit rate: 384 kb/s
Channel(s): 6 channels
Channel layout: L R C LFE Ls Rs
Sampling rate: 48.0 kHz
Frame rate: 31.250 FPS (1536 SPF)
Bit depth: 16 bits
Compression mode: Lossy
Stream size: 250 MiB (7%)
Title: DUB AC3 (Official)
Language: Russian
Service kind: Complete Main
Default: Yes
Forced: Yes
Audio #2
ID: 3
Format: E-AC-3
Format/Info: Enhanced AC-3
Commercial name: Dolby Digital Plus
Codec ID: A_EAC3
Duration: 1 h 31 min
Bit rate mode: Constant
Bit rate: 384 kb/s
Channel(s): 6 channels
Channel layout: L R C LFE Ls Rs
Sampling rate: 48.0 kHz
Frame rate: 31.250 FPS (1536 SPF)
Compression mode: Lossy
Stream size: 250 MiB (7%)
Title: DUB EAC3 (Official)
Language: Russian
Service kind: Complete Main
Default: No
Forced: No
Text
ID: 4
Format: UTF-8
Codec ID: S_TEXT/UTF8
Codec ID/Info: UTF-8 Plain Text
Duration: 1 h 24 min
Bit rate: 44 b/s
Count of elements: 792
Stream size: 27.6 KiB (0%)
Language: English
Default: No
Forced: No

Скриншоты

[ivtracker.org].t41472.torrent 
 ЗОЛОТАЯ РАЗДАЧА! СКАЧАННОЕ НЕ ЗАСЧИТЫВАЕТСЯ! 
Торрент: Зарегистрирован [ 2024-06-16 11:15 ] · C602EBFB8DF946C93787A0C8DE567424AD7FCD3A

Скачать .torrent

Скачать

74 KB

Статус: проверено · admin · 26 дней назад
Скачан: 0 раз
Размер: 3.62 GB
Поделиться:
 
Похожие темы
[Профиль] [ЛС]
Вернуться к началу
Показать сообщения:    
Ответить на тему

Текущее время: 13-Июл 02:50

Часовой пояс: UTC + 3



Вы не можете начинать темы
Вы не можете отвечать на сообщения
Вы не можете редактировать свои сообщения
Вы не можете удалять свои сообщения
Вы не можете голосовать в опросах
Вы не можете прикреплять файлы к сообщениям
Вы можете скачивать файлы