Дева и дракон / Damsel (2024) WEB-DL 2160p | 4K | HDR | Dolby Vision Profile 8 | D, P, P2, L

Ответить на тему
 
Автор Сообщение

admin ®

Статус: Не в сети

Стаж: 6 лет 9 месяцев

Сообщений: 23696

Репутация: 0 [+] [-]

Откуда: Россия

Создавать темы 01-Апр-2024 19:34 | #1

[Цитировать]

Дева и дракон / Damsel
Год выхода: 2024
Производство: США/ Netflix, PCMA Management and Productions, Roth/Kirschenbaum Films
Жанр: Фэнтези, боевик, приключения
Перевод: Неофициальный дублированный, профессиональный многоголосый, любительский многоголосый, профессиональный двухголосый
Продолжительность: 01:49:33
Режиссёр: Хуан Карлос Фреснадильо
В ролях: Милли Бобби Браун, Рэй Уинстон, Анджела Бассетт, Ник Робинсон, Робин Райт, Мило Твоми, Патрис Найамбана, Улли Экерманн
Описание: История о принцессе Элоди, которая думает, что выйдет замуж за прекрасного принца Генри. Но она не знает, что на самом деле королевская семья завербовала ее в жертву, чтобы выплатить древний долг. Оказавшись в пещере с огнедышащим драконом, она вынуждена полагаться исключительно на свой ум и силу воли, чтобы выжить.

Формат: MKV
Качество: WEB-DL 2160p
Видео: MPEG-H/HEVC, 3840x2160, 18,4 Mb/s, 0.092 бит/(Пиксели*Кадры), 24,000 fps, HDR10
Аудио 1: Русский, E-AC3, 5.1, 48 kHz, 768 kbps / MVO Jaskier
Аудио 2: Русский, E-AC3, 5.1, 48 kHz, 768 kbps / MVO TVShows
Аудио 3: Русский, E-AC3, 5.1, 48 kHz, 768 kbps / MVO LostFilm
Аудио 4: Русский, AC3, 5.1, 48 kHz, 640 kbps / MVO Voice Project Studio
Аудио 5: Русский, AC3, 2.0, 48 kHz, 192 kbps / MVO Red Head Sound
Аудио 6: Русский, AC3, 5.1, 48 kHz, 640 kbps / DVO ViruseProject
Аудио 7: Русский, AC3, 2.0, 48 kHz, 192 kbps / Dub HDRezka Studio
Аудио 8: Украинский, E-AC3, 5.1, 48 kHz, 640 kbps / Dub Postmodern
Аудио 9: Английский, Е-AC3 Atmos, 5.1, 48 kHz, 768 kbps / Original English
Субтитры: Русские (Forced, Full), украинские (Forced, Full), английские (Full, SDH)

Mediainfo

General
Unique ID : 275514553609861968858923737322518577667 (0xCF462C4298879B09692213E6D5A58203)
Complete name : L:Damsel.2024.2160p.UHD.NF.WEB-DL.HDR.DV.HEVC-Нечипорук.mkv
Format : Matroska
Format version : Version 4
File size : 18.2 GiB
Duration : 1 h 49 min
Overall bit rate : 23.7 Mb/s
Frame rate : 24.000 FPS
Movie name : Damsel.2024.2160p.UHD.NF.WEB-DL.HDR.DV.HEVC-Нечипорук
Encoded date : 2024-03-30 11:23:12 UTC
Writing application : mkvmerge v83.0 ('Circle Of Friends') 64-bit
Writing library : libebml v1.4.5 + libmatroska v1.7.1
Cover : Yes
Attachments : cover.jpg
Video
ID : 1
Format : HEVC
Format/Info : High Efficiency Video Coding
Format profile : Main 10@L5@Main
HDR format : Dolby Vision, Version 1.0, Profile 8.1, dvhe.08.06, BL+RPU, HDR10 compatible / SMPTE ST 2086, Version HDR10, HDR10 compatible
Codec ID : V_MPEGH/ISO/HEVC
Duration : 1 h 49 min
Bit rate : 18.4 Mb/s
Width : 3 840 pixels
Height : 2 160 pixels
Display aspect ratio : 16:9
Frame rate mode : Constant
Frame rate : 24.000 FPS
Color space : YUV
Chroma subsampling : 4:2:0 (Type 2)
Bit depth : 10 bits
Bits/(Pixel*Frame) : 0.092
Stream size : 14.1 GiB (77%)
Title : Damsel.2024.2160p.UHD.NF.WEB-DL.HDR.DV.HEVC-Нечипорук
Language : English
Default : Yes
Forced : No
Color range : Limited
Color primaries : BT.2020
Transfer characteristics : PQ
Matrix coefficients : BT.2020 non-constant
Mastering display color primar : Display P3
Mastering display luminance : min: 0.0001 cd/m2, max: 1000 cd/m2
Maximum Content Light Level : 485 cd/m2
Maximum Frame-Average Light Le : 344 cd/m2
Audio #1
ID : 2
Format : E-AC-3
Format/Info : Enhanced AC-3
Commercial name : Dolby Digital Plus
Codec ID : A_EAC3
Duration : 1 h 49 min
Bit rate mode : Constant
Bit rate : 768 kb/s
Channel(s) : 6 channels
Channel layout : L R C LFE Ls Rs
Sampling rate : 48.0 kHz
Frame rate : 31.250 FPS (1536 SPF)
Compression mode : Lossy
Stream size : 602 MiB (3%)
Title : MVO Jaskier
Language : Russian
Service kind : Complete Main
Default : Yes
Forced : No
Audio #2
ID : 3
Format : E-AC-3
Format/Info : Enhanced AC-3
Commercial name : Dolby Digital Plus
Codec ID : A_EAC3
Duration : 1 h 49 min
Bit rate mode : Constant
Bit rate : 768 kb/s
Channel(s) : 6 channels
Channel layout : L R C LFE Ls Rs
Sampling rate : 48.0 kHz
Frame rate : 31.250 FPS (1536 SPF)
Compression mode : Lossy
Stream size : 602 MiB (3%)
Title : MVO TVShows
Language : Russian
Service kind : Complete Main
Default : No
Forced : No
Audio #3
ID : 4
Format : E-AC-3
Format/Info : Enhanced AC-3
Commercial name : Dolby Digital Plus
Codec ID : A_EAC3
Duration : 1 h 49 min
Bit rate mode : Constant
Bit rate : 768 kb/s
Channel(s) : 6 channels
Channel layout : L R C LFE Ls Rs
Sampling rate : 48.0 kHz
Frame rate : 31.250 FPS (1536 SPF)
Compression mode : Lossy
Stream size : 602 MiB (3%)
Title : MVO LostFilm
Language : Russian
Service kind : Complete Main
Default : No
Forced : No
Audio #4
ID : 5
Format : AC-3
Format/Info : Audio Coding 3
Commercial name : Dolby Digital
Codec ID : A_AC3
Duration : 1 h 49 min
Bit rate mode : Constant
Bit rate : 640 kb/s
Channel(s) : 6 channels
Channel layout : L R C LFE Ls Rs
Sampling rate : 48.0 kHz
Frame rate : 31.250 FPS (1536 SPF)
Compression mode : Lossy
Stream size : 502 MiB (3%)
Title : MVO Voice Project Studio
Language : Russian
Service kind : Complete Main
Default : No
Forced : No
Audio #5
ID : 6
Format : AC-3
Format/Info : Audio Coding 3
Commercial name : Dolby Digital
Codec ID : A_AC3
Duration : 1 h 49 min
Bit rate mode : Constant
Bit rate : 192 kb/s
Channel(s) : 2 channels
Channel layout : L R
Sampling rate : 48.0 kHz
Frame rate : 31.250 FPS (1536 SPF)
Compression mode : Lossy
Stream size : 150 MiB (1%)
Title : MVO Red Head Sound
Language : Russian
Service kind : Complete Main
Default : No
Forced : No
Audio #6
ID : 7
Format : AC-3
Format/Info : Audio Coding 3
Commercial name : Dolby Digital
Codec ID : A_AC3
Duration : 1 h 49 min
Bit rate mode : Constant
Bit rate : 640 kb/s
Channel(s) : 6 channels
Channel layout : L R C LFE Ls Rs
Sampling rate : 48.0 kHz
Frame rate : 31.250 FPS (1536 SPF)
Compression mode : Lossy
Stream size : 502 MiB (3%)
Title : DVO ViruseProject
Language : Russian
Service kind : Complete Main
Default : No
Forced : No
Audio #7
ID : 8
Format : AC-3
Format/Info : Audio Coding 3
Commercial name : Dolby Digital
Codec ID : A_AC3
Duration : 1 h 49 min
Bit rate mode : Constant
Bit rate : 192 kb/s
Channel(s) : 2 channels
Channel layout : L R
Sampling rate : 48.0 kHz
Frame rate : 31.250 FPS (1536 SPF)
Compression mode : Lossy
Stream size : 150 MiB (1%)
Title : Дубляж HDRezka Studio
Language : Russian
Service kind : Complete Main
Default : No
Forced : No
Audio #8
ID : 9
Format : E-AC-3
Format/Info : Enhanced AC-3
Commercial name : Dolby Digital Plus
Codec ID : A_EAC3
Duration : 1 h 49 min
Bit rate mode : Constant
Bit rate : 640 kb/s
Channel(s) : 6 channels
Channel layout : L R C LFE Ls Rs
Sampling rate : 48.0 kHz
Frame rate : 31.250 FPS (1536 SPF)
Compression mode : Lossy
Stream size : 502 MiB (3%)
Title : Дубляж Postmodern
Language : Ukrainian
Service kind : Complete Main
Default : No
Forced : No
Audio #9
ID : 10
Format : E-AC-3 JOC
Format/Info : Enhanced AC-3 with Joint Object Coding
Commercial name : Dolby Digital Plus with Dolby Atmos
Codec ID : A_EAC3
Duration : 1 h 49 min
Bit rate mode : Constant
Bit rate : 768 kb/s
Channel(s) : 6 channels
Channel layout : L R C LFE Ls Rs
Sampling rate : 48.0 kHz
Frame rate : 31.250 FPS (1536 SPF)
Compression mode : Lossy
Stream size : 602 MiB (3%)
Title : Original
Language : English
Service kind : Complete Main
Default : No
Forced : No
Complexity index : 16
Number of dynamic objects : 15
Bed channel count : 1 channel
Bed channel configuration : LFE
Text #1
ID : 11
Format : UTF-8
Codec ID : S_TEXT/UTF8
Codec ID/Info : UTF-8 Plain Text
Duration : 1 h 2 min
Bit rate : 0 b/s
Frame rate : 0.002 FPS
Count of elements : 9
Stream size : 228 Bytes (0%)
Title : Форсированные
Language : Russian
Default : Yes
Forced : No
Text #2
ID : 12
Format : UTF-8
Codec ID : S_TEXT/UTF8
Codec ID/Info : UTF-8 Plain Text
Duration : 1 h 46 min
Bit rate : 35 b/s
Frame rate : 0.107 FPS
Count of elements : 686
Stream size : 27.8 KiB (0%)
Title : Полные
Language : Russian
Default : No
Forced : No
Text #3
ID : 13
Format : UTF-8
Codec ID : S_TEXT/UTF8
Codec ID/Info : UTF-8 Plain Text
Duration : 1 h 2 min
Bit rate : 0 b/s
Frame rate : 0.004 FPS
Count of elements : 14
Stream size : 402 Bytes (0%)
Title : Форсованнi
Language : Ukrainian
Default : No
Forced : No
Text #4
ID : 14
Format : UTF-8
Codec ID : S_TEXT/UTF8
Codec ID/Info : UTF-8 Plain Text
Duration : 1 h 46 min
Bit rate : 36 b/s
Frame rate : 0.107 FPS
Count of elements : 686
Stream size : 28.5 KiB (0%)
Title : Повнi
Language : Ukrainian
Default : No
Forced : No
Text #5
ID : 15
Format : UTF-8
Codec ID : S_TEXT/UTF8
Codec ID/Info : UTF-8 Plain Text
Duration : 1 h 43 min
Bit rate : 23 b/s
Frame rate : 0.113 FPS
Count of elements : 698
Stream size : 17.5 KiB (0%)
Title : Full
Language : English
Default : No
Forced : No
Text #6
ID : 16
Format : UTF-8
Codec ID : S_TEXT/UTF8
Codec ID/Info : UTF-8 Plain Text
Duration : 1 h 43 min
Bit rate : 28 b/s
Frame rate : 0.145 FPS
Count of elements : 898
Stream size : 21.4 KiB (0%)
Title : Full SDH
Language : English
Default : No
Forced : No
Text #7
ID : 17
Format : UTF-8
Codec ID : S_TEXT/UTF8
Codec ID/Info : UTF-8 Plain Text
Duration : 1 h 46 min
Bit rate : 20 b/s
Frame rate : 0.105 FPS
Count of elements : 672
Stream size : 15.8 KiB (0%)
Title : Voll
Language : German
Default : No
Forced : No
Text #8
ID : 18
Format : UTF-8
Codec ID : S_TEXT/UTF8
Codec ID/Info : UTF-8 Plain Text
Duration : 1 h 46 min
Bit rate : 19 b/s
Frame rate : 0.106 FPS
Count of elements : 679
Stream size : 15.5 KiB (0%)
Title : Pełne napisy
Language : Polish
Default : No
Forced : No
Text #9
ID : 19
Format : UTF-8
Codec ID : S_TEXT/UTF8
Codec ID/Info : UTF-8 Plain Text
Duration : 1 h 46 min
Bit rate : 20 b/s
Frame rate : 0.106 FPS
Count of elements : 679
Stream size : 16.3 KiB (0%)
Title : Subtitrări complete
Language : Romanian
Default : No
Forced : No
Menu
00:00:00.000 : en:Part 01
01:41:00.000 : en:Credits

Скриншоты


[Профиль] [ЛС]
Вернуться к началу
Показать сообщения:    
Ответить на тему

Текущее время: 21-Июл 17:17

Часовой пояс: UTC + 3



Вы не можете начинать темы
Вы не можете отвечать на сообщения
Вы не можете редактировать свои сообщения
Вы не можете удалять свои сообщения
Вы не можете голосовать в опросах
Вы не можете прикреплять файлы к сообщениям
Вы не можете скачивать файлы