Дева и дракон / Damsel (2024) WEB-DL 1080p от EniaHD | P, P2, L

Ответить на тему
Статистика раздачи
Размер:  8.18 GB   |    Зарегистрирован:  21 день   |    Скачан:  0 раз
Сидов:  199  [  0 KB/s  ]   Личеров:  17  [  0 KB/s  ]   Подробная статистика пиров
 
   
 
 
Автор Сообщение

admin ®

Статус: Не в сети

Стаж: 6 лет 6 месяцев

Сообщений: 23700

Репутация: 0 [+] [-]

Откуда: Россия

Создавать темы 01-Апр-2024 19:34 | #1

[Цитировать]

Дева и дракон / Damsel
Страна: США
Жанр: фэнтези, боевик
Год выпуска: 2024
Продолжительность: 01:49:34
Перевод 1: Профессиональный (многоголосый закадровый) - Jaskier
Перевод 2: Профессиональный (многоголосый закадровый) - LostFilm
Перевод 3: Профессиональный (многоголосый закадровый) - TVShows
Перевод 4: Профессиональный (многоголосый закадровый) - Red Head Sound
Перевод 5: Любительский (многоголосый закадровый) - Voice Project Studio
Перевод 6: Профессиональный (двухголосый закадровый) - ViruseProject
Перевод 7 (украинский): Профессиональный (дублированный) - Postmodern
Субтитры: русские (Forced, Full), английские (SDH), французские, немецкие, иврит, итальянские, португальские, румынские, испанские, украинские (Forced, Full)
Режиссер: Хуан Карлос Фреснадильо / Juan Carlos Fresnadillo
В ролях: Милли Бобби Браун, Шохре Агдашлу, Рэй Уинстон, Анджела Бассетт, Брук Картер, Ник Робинсон, Робин Райт, Мило Твоми, Николь Джозеф, Патрис Найамбана
Описание: Принцессу Элоди из страдающей от неурожаев страны выдают за принца процветающего королевства. Девушка рада спасти свой народ от голода, и жених ей кажется вполне симпатичным, но она даже не подозревает, что ей уготовано место не в спальне принца в качестве законной супруги, а в пасти дракона в качестве ритуальной жертвы.
Тип релиза: WEB-DL 1080p | NETFLIX
Контейнер: MKV (Сэмпл)
Видео: MPEG-4 AVC, 1920x1080, 24 fps, 6653 kbps
Аудио 1: RUS AC-3, 5.1, 48 kHz, 384 kbps
Аудио 2: RUS AC-3, 2.0, 48 kHz, 384 kbps
Аудио 3: RUS AC-3, 5.1, 48 kHz, 384 kbps
Аудио 4: RUS AAC, 2.0, 48 kHz, 192 kbps
Аудио 5: RUS AC-3, 5.1, 48 kHz, 640 kbps
Аудио 6: RUS AC-3, 5.1, 48 kHz, 640 kbps
Аудио 7: UKR E-AC-3, 5.1, 48 kHz, 640 kbps
Аудио 8: ENG E-AC-3 JOC, 5.1, 48 kHz, 768 kbps
Формат субтитров: softsub (SRT)

MediaInfo

General
Unique ID : 123843486934795722515649303570184327230 (0x5D2B635358833499E0D0931CB4A6D03E)
Complete name : Damsel.2024.1080p.NF.WEB-DL.H.264-EniaHD.mkv
Format : Matroska
Format version : Version 4
File size : 8.18 GiB
Duration : 1 h 49 min
Overall bit rate mode : Variable
Overall bit rate : 10.7 Mb/s
Frame rate : 24.000 FPS
Movie name : Damsel (2024) - EniaHD
Writing application : mkvmerge v57.0.0 ('Till The End') 64-bit
Writing library : libebml v1.4.2 + libmatroska v1.6.4
Video
ID : 1
Format : AVC
Format/Info : Advanced Video Codec
Format profile : High@L4
Format settings : CABAC / 4 Ref Frames
Format settings, CABAC : Yes
Format settings, Reference fra : 4 frames
Codec ID : V_MPEG4/ISO/AVC
Duration : 1 h 49 min
Bit rate mode : Variable
Bit rate : 6 653 kb/s
Maximum bit rate : 20.0 Mb/s
Width : 1 920 pixels
Height : 1 080 pixels
Display aspect ratio : 16:9
Frame rate mode : Constant
Frame rate : 24.000 FPS
Color space : YUV
Chroma subsampling : 4:2:0
Bit depth : 8 bits
Scan type : Progressive
Bits/(Pixel*Frame) : 0.134
Stream size : 5.09 GiB (62%)
Writing library : x264 core 148 r2727 7d026e8
Encoding settings : cabac=1 / ref=4 / deblock=1:0:0 / analyse=0x3:0x111 / me=umh / subme=10 / psy=1 / psy_rd=1.00:0.00 / mixed_ref=1 / me_range=120 / chroma_me=1 / trellis=2 / 8x8dct=1 / cqm=0 / deadzone=21,11 / fast_pskip=1 / chroma_qp_offset=-2 / threads=6 / lookahead_threads=1 / sliced_threads=0 / nr=0 / decimate=1 / interlaced=0 / bluray_compat=0 / stitchable=1 / constrained_intra=0 / bframes=16 / b_pyramid=2 / b_adapt=2 / b_bias=0 / direct=3 / weightb=1 / open_gop=0 / weightp=2 / keyint=240 / keyint_min=121 / scenecut=0 / intra_refresh=0 / rc_lookahead=240 / rc=crf / mbtree=1 / crf=17.0 / qcomp=0.50 / qpmin=6 / qpmax=51 / qpstep=4 / vbv_maxrate=20000 / vbv_bufsize=25000 / crf_max=0.0 / nal_hrd=vbr / filler=0 / ip_ratio=1.40 / aq=1:0.80
Default : Yes
Forced : No
Audio #1
ID : 2
Format : AC-3
Format/Info : Audio Coding 3
Commercial name : Dolby Digital
Codec ID : A_AC3
Duration : 1 h 49 min
Bit rate mode : Constant
Bit rate : 384 kb/s
Channel(s) : 6 channels
Channel layout : L R C LFE Ls Rs
Sampling rate : 48.0 kHz
Frame rate : 31.250 FPS (1536 SPF)
Compression mode : Lossy
Stream size : 301 MiB (4%)
Title : Jaskier
Language : Russian
Service kind : Complete Main
Default : Yes
Forced : No
Audio #2
ID : 3
Format : AC-3
Format/Info : Audio Coding 3
Commercial name : Dolby Digital
Codec ID : A_AC3
Duration : 1 h 49 min
Bit rate mode : Constant
Bit rate : 384 kb/s
Channel(s) : 2 channels
Channel layout : L R
Sampling rate : 48.0 kHz
Frame rate : 31.250 FPS (1536 SPF)
Compression mode : Lossy
Stream size : 301 MiB (4%)
Title : LostFilm
Language : Russian
Service kind : Complete Main
Default : No
Forced : No
Audio #3
ID : 4
Format : AC-3
Format/Info : Audio Coding 3
Commercial name : Dolby Digital
Codec ID : A_AC3
Duration : 1 h 49 min
Bit rate mode : Constant
Bit rate : 384 kb/s
Channel(s) : 6 channels
Channel layout : L R C LFE Ls Rs
Sampling rate : 48.0 kHz
Frame rate : 31.250 FPS (1536 SPF)
Compression mode : Lossy
Stream size : 301 MiB (4%)
Title : TVShows
Language : Russian
Service kind : Complete Main
Default : No
Forced : No
Audio #4
ID : 5
Format : AAC LC
Format/Info : Advanced Audio Codec Low Complexity
Codec ID : A_AAC-2
Duration : 1 h 49 min
Bit rate : 192 kb/s
Channel(s) : 2 channels
Channel layout : L R
Sampling rate : 48.0 kHz
Frame rate : 46.875 FPS (1024 SPF)
Compression mode : Lossy
Stream size : 150 MiB (2%)
Title : Red Head Sound
Language : Russian
Default : No
Forced : No
Audio #5
ID : 6
Format : AC-3
Format/Info : Audio Coding 3
Commercial name : Dolby Digital
Codec ID : A_AC3
Duration : 1 h 49 min
Bit rate mode : Constant
Bit rate : 640 kb/s
Channel(s) : 6 channels
Channel layout : L R C LFE Ls Rs
Sampling rate : 48.0 kHz
Frame rate : 31.250 FPS (1536 SPF)
Compression mode : Lossy
Stream size : 502 MiB (6%)
Title : Voice Project Studio
Language : Russian
Service kind : Complete Main
Default : No
Forced : No
Audio #6
ID : 7
Format : AC-3
Format/Info : Audio Coding 3
Commercial name : Dolby Digital
Codec ID : A_AC3
Duration : 1 h 49 min
Bit rate mode : Constant
Bit rate : 640 kb/s
Channel(s) : 6 channels
Channel layout : L R C LFE Ls Rs
Sampling rate : 48.0 kHz
Frame rate : 31.250 FPS (1536 SPF)
Compression mode : Lossy
Stream size : 502 MiB (6%)
Title : ViruseProject
Language : Russian
Service kind : Complete Main
Default : No
Forced : No
Audio #7
ID : 8
Format : E-AC-3
Format/Info : Enhanced AC-3
Commercial name : Dolby Digital Plus
Codec ID : A_EAC3
Duration : 1 h 49 min
Bit rate mode : Constant
Bit rate : 640 kb/s
Channel(s) : 6 channels
Channel layout : L R C LFE Ls Rs
Sampling rate : 48.0 kHz
Frame rate : 31.250 FPS (1536 SPF)
Compression mode : Lossy
Stream size : 502 MiB (6%)
Title : Postmodern
Language : Ukrainian
Service kind : Complete Main
Default : No
Forced : No
Audio #8
ID : 9
Format : E-AC-3 JOC
Format/Info : Enhanced AC-3 with Joint Object Coding
Commercial name : Dolby Digital Plus with Dolby Atmos
Codec ID : A_EAC3
Duration : 1 h 49 min
Bit rate mode : Constant
Bit rate : 768 kb/s
Channel(s) : 6 channels
Channel layout : L R C LFE Ls Rs
Sampling rate : 48.0 kHz
Frame rate : 31.250 FPS (1536 SPF)
Compression mode : Lossy
Stream size : 602 MiB (7%)
Title : English
Language : English
Service kind : Complete Main
Default : No
Forced : No
Complexity index : 16
Number of dynamic objects : 15
Bed channel count : 1 channel
Bed channel configuration : LFE
Text #1
ID : 10
Format : UTF-8
Codec ID : S_TEXT/UTF8
Codec ID/Info : UTF-8 Plain Text
Duration : 1 h 2 min
Bit rate : 0 b/s
Frame rate : 0.002 FPS
Count of elements : 9
Stream size : 228 Bytes (0%)
Title : Russian (Forced)
Language : Russian
Default : Yes
Forced : No
Text #2
ID : 11
Format : UTF-8
Codec ID : S_TEXT/UTF8
Codec ID/Info : UTF-8 Plain Text
Duration : 1 h 46 min
Bit rate : 35 b/s
Frame rate : 0.107 FPS
Count of elements : 686
Stream size : 27.9 KiB (0%)
Title : Russian
Language : Russian
Default : No
Forced : No
Text #3
ID : 12
Format : UTF-8
Codec ID : S_TEXT/UTF8
Codec ID/Info : UTF-8 Plain Text
Duration : 1 h 43 min
Bit rate : 28 b/s
Frame rate : 0.145 FPS
Count of elements : 898
Stream size : 21.6 KiB (0%)
Title : English (SDH)
Language : English
Default : No
Forced : No
Text #4
ID : 13
Format : UTF-8
Codec ID : S_TEXT/UTF8
Codec ID/Info : UTF-8 Plain Text
Duration : 1 h 46 min
Bit rate : 20 b/s
Frame rate : 0.099 FPS
Count of elements : 636
Stream size : 16.1 KiB (0%)
Title : French
Language : French
Default : No
Forced : No
Text #5
ID : 14
Format : UTF-8
Codec ID : S_TEXT/UTF8
Codec ID/Info : UTF-8 Plain Text
Duration : 1 h 43 min
Bit rate : 26 b/s
Frame rate : 0.111 FPS
Count of elements : 688
Stream size : 20.0 KiB (0%)
Title : German
Language : German
Default : No
Forced : No
Text #6
ID : 15
Format : UTF-8
Codec ID : S_TEXT/UTF8
Codec ID/Info : UTF-8 Plain Text
Duration : 1 h 46 min
Bit rate : 28 b/s
Frame rate : 0.107 FPS
Count of elements : 686
Stream size : 22.3 KiB (0%)
Title : Hebrew
Language : Hebrew
Default : No
Forced : No
Text #7
ID : 16
Format : UTF-8
Codec ID : S_TEXT/UTF8
Codec ID/Info : UTF-8 Plain Text
Duration : 1 h 46 min
Bit rate : 21 b/s
Frame rate : 0.106 FPS
Count of elements : 681
Stream size : 16.7 KiB (0%)
Title : Italian
Language : Italian
Default : No
Forced : No
Text #8
ID : 17
Format : UTF-8
Codec ID : S_TEXT/UTF8
Codec ID/Info : UTF-8 Plain Text
Duration : 1 h 46 min
Bit rate : 20 b/s
Frame rate : 0.106 FPS
Count of elements : 682
Stream size : 16.2 KiB (0%)
Title : Portuguese
Language : Portuguese (BR)
Default : No
Forced : No
Text #9
ID : 18
Format : UTF-8
Codec ID : S_TEXT/UTF8
Codec ID/Info : UTF-8 Plain Text
Duration : 1 h 46 min
Bit rate : 20 b/s
Frame rate : 0.106 FPS
Count of elements : 679
Stream size : 16.4 KiB (0%)
Title : Romanian
Language : Romanian
Default : No
Forced : No
Text #10
ID : 19
Format : UTF-8
Codec ID : S_TEXT/UTF8
Codec ID/Info : UTF-8 Plain Text
Duration : 1 h 46 min
Bit rate : 20 b/s
Frame rate : 0.106 FPS
Count of elements : 680
Stream size : 16.3 KiB (0%)
Title : Spanish
Language : Spanish (Latin America)
Default : No
Forced : No
Text #11
ID : 20
Format : UTF-8
Codec ID : S_TEXT/UTF8
Codec ID/Info : UTF-8 Plain Text
Duration : 1 h 46 min
Bit rate : 36 b/s
Frame rate : 0.107 FPS
Count of elements : 686
Stream size : 28.6 KiB (0%)
Title : Ukrainian
Language : Ukrainian
Default : No
Forced : No
Text #12
ID : 21
Format : UTF-8
Codec ID : S_TEXT/UTF8
Codec ID/Info : UTF-8 Plain Text
Duration : 1 h 2 min
Bit rate : 0 b/s
Frame rate : 0.004 FPS
Count of elements : 14
Stream size : 402 Bytes (0%)
Title : Ukrainian (Forced)
Language : Ukrainian
Default : No
Forced : No
Menu
00:00:00.000 : en:Chapter 01
01:41:01.000 : en:Credits

Скриншоты


[ivtracker.org].t41381.torrent 
 ЗОЛОТАЯ РАЗДАЧА! СКАЧАННОЕ НЕ ЗАСЧИТЫВАЕТСЯ! 
Торрент: Зарегистрирован [ 2024-04-01 19:34 ] · 45AA8080172EF6B63A70BAB1F2FE2D75EC70F8F7

Скачать .torrent

Скачать

21 KB

Статус: проверено · admin · 21 день назад
Скачан: 0 раз
Размер: 8.18 GB
Поделиться:
 
Похожие темы
[Профиль] [ЛС]
Вернуться к началу
Показать сообщения:    
Ответить на тему

Текущее время: 23-Апр 17:26

Часовой пояс: UTC + 3



Вы не можете начинать темы
Вы не можете отвечать на сообщения
Вы не можете редактировать свои сообщения
Вы не можете удалять свои сообщения
Вы не можете голосовать в опросах
Вы не можете прикреплять файлы к сообщениям
Вы можете скачивать файлы