Самый лучший день (Жора Крыжовников) [2015, Россия, комедия, музыка, WEB-DL 1080p] + Original Rus

Reply to topic
DL-List and Torrent activity
Size:  4.11 GB   |    Registered:  2 years 11 months   |    Completed:  0 times
Seeders:  3  [  0 KB/s  ]   Leechers:  3  [  0 KB/s  ]   Show peers in full details
 
   
 
 
Author Message

admin ®

Gender: Male

Longevity: 3 years

Posts: 10019

Post 25-Oct-2017 09:48

[Quote]

Самый лучший день
Страна: Россия
Жанр: комедия, музыка
Год выпуска: 2015
Продолжительность: 01:46:54
Перевод: Не требуется
Субтитры: нет
Оригинальная аудиодорожка: русский-Режиссер: Жора Крыжовников-В ролях: Дмитрий Нагиев, Юлия Александрова, Ольга Серябкина, Инна Чурикова, Михаил Боярский, Елена Яковлева, Владислав Ветров, Валентина Мазунина, Ян Цапник, Андрей Малахов
Описание: Успешному сотруднику ДПС Пете Васютину уже давно пора заводить семью, а он живет с мамой, хозяйкой придорожного кафе. И невеста есть – королева бензоколонки, кассирша Оля. В тот самый день, когда Петя решает сделать Оле предложение, в его служебную машину врезается пьяная поп-звезда Алина Шёпот. Чтобы избежать наказания, Алина решает соблазнить Петю.-Релиз от:
-Тип релиза: WEB-DL 1080p
Контейнер: MKV-Видео: MPEG4 Video (H264) 1920x1080p, ~ 5009 kbps, 24 fps, 0.101 Bits/(Pixel*Frame)-Аудио: 48 kHz, AC3, 3/2 (L,C,R,l,r) + LFE ch, ~384.00 kbps avg

MediaInfo

General
Уникальный идентификатор : 186591728392394984900037810886172319656 (0x8C60427C4315730FB51FA7CE33819FA8)
Полное имя : E:\Samyy.luchshiy.den.WEB-DL..mkv
Формат : Matroska
Версия формата : Version 2
Размер файла : 4.11 GiB
Продолжительность : 1h 46mn
Общий поток : 5 502 Kbps
Название фильма : Samyy luchshiy den! (2015) - Release for HDCLUB
Дата кодирования : UTC 2016-01-24 20:02:54
Программа кодирования : mkvmerge v3.4.0 ('Rapunzel') built on May 15 2010 09:38:20
Библиотека кодирования : libebml v0.8.0 + libmatroska v0.9.0
Video
Идентификатор : 1
Формат : AVC
Формат/Информация : Advanced Video Codec
Профиль формата : High@L4.0
Параметр CABAC формата : Yes
Параметр ReFrames формата : 4 frames
Идентификатор кодека : V_MPEG4/ISO/AVC
Продолжительность : 1h 46mn
Битрейт : 5 009 Kbps
Ширина : 1 920 pixels
Высота : 1 080 pixels
Соотношение сторон : 16:9
Режим частоты кадров : Constant
Частота кадров : 24.000 fps
Цветовое пространство : YUV
Субдискретизация насыщенности : 4:2:0
Битовая глубина : 8 bits
Тип развёртки : Progressive
Бит/(Пиксели*Кадры) : 0.101
Размер потока : 3.74 GiB (91%)
Заголовок : Samyy luchshiy den! (2015) - Release for HDCLUB
Язык : Russian
Default : Yes
Forced : No
Основные цвета : BT.709
Характеристики трансфера : BT.709
Коэффициенты матрицы : BT.709
colour_range : Limited
Audio
Идентификатор : 2
Формат : AC-3
Формат/Информация : Audio Coding 3
Расширение режима : CM (complete main)
Параметр Endianness формата : Big
Идентификатор кодека : A_AC3
Продолжительность : 1h 46mn
Вид битрейта : Constant
Битрейт : 384 Kbps
Каналы : 6 channels
Расположение каналов : Front: L C R, Side: L R, LFE
Частота : 48.0 KHz
Битовая глубина : 16 bits
Метод сжатия : Lossy
Размер потока : 294 MiB (7%)
Заголовок : AC3 5.1 @ 384 kbps
Язык : Russian
Default : Yes
Forced : No
Menu
00:00:00.000 : en:1
00:06:21.000 : en:2
00:11:40.000 : en:3
00:17:17.000 : en:4
00:22:26.000 : en:5
00:28:25.000 : en:6
00:34:38.000 : en:7
00:41:31.000 : en:8
00:47:00.000 : en:9
00:53:24.000 : en:10
00:59:26.000 : en:11
01:04:54.000 : en:12
01:11:11.000 : en:13
01:16:52.000 : en:14
01:22:58.000 : en:15
01:28:08.000 : en:16
01:33:29.000 : en:17
01:39:37.000 : en:18

Скриншоты

 GOLD TORRENT! DOWNLOAD TRAFFIC DOES NOT CONSIDER! 
Torrent: Registered [ 2017-10-25 09:48 ]   · FE9B6749EA0EFF0C6C19A80F84F0D867DC5128AE

Download .torrent

Download

21 KB

Status: checked
Completed: 0 times
Size: 4.11 GB
Поделиться:
terms.php
[Profile] [PM]
Display posts:    
Reply to topic

Current time is: 27-Sep 16:43

All times are UTC + 3



You cannot post new topics in this forum
You cannot reply to topics in this forum
You cannot edit your posts in this forum
You cannot delete your posts in this forum
You cannot vote in polls in this forum
You cannot attach files in this forum
You can download files in this forum