Время первых (Дмитрий Киселёв) [2017, Россия, приключения, триллер, WEB-DL 1080p]

Reply to topic
DL-List and Torrent activity
Size:  4.63 GB   |    Registered:  2 years 11 months   |    Completed:  0 times
Seeders:  14  [  0 KB/s  ]   Leechers:  1  [  0 KB/s  ]   Show peers in full details
 
   
 
 
Author Message

admin ®

Gender: Male

Longevity: 3 years

Posts: 10054

Post 25-Oct-2017 08:20

[Quote]

Время первых
Страна: Россия
Жанр: приключения, триллер
Год выпуска: 2017
Продолжительность: 02:14:38
Перевод: Не требуется
Субтитры: нет
Оригинальная аудиодорожка: русский
Режиссер: Дмитрий Киселёв
В ролях: Евгений Миронов, Константин Хабенский, Владимир Ильин, Анатолий Котенёв, Александра Урсуляк, Елена Панова, Александр Новин, Марта Тимофеева, Геннадий Смирнов, Юрий Нифонтов
Описание: 60-е. Разгар холодной войны. Две супердержавы, СССР и США бьются за первенство в космической гонке. Пока СССР впереди, на очереди – выход человека в открытый космос.
За две недели до старта взрывается тестовый корабль. Времени на выявление причин нет. И пусть риски огромны, мы не можем уступить лидерство.
Опытный военный летчик Павел Беляев и его напарник Алексей Леонов, необстрелянный и горячий, мечтающий о подвиге, – два человека, готовые шагнуть в неизвестность. Но никто не мог даже предположить всего, с чем им предстояло столкнуться в полете. В этой миссии все, что только можно, пошло не так…

[box]Скачать сэмпл[/box]
Тип релиза: WEB-DL 1080p
Контейнер: MKV
Видео: MPEG-4 AVC, 4446 Кбит/с, 1920x818, 25,000 fps
Аудио: Rus, AC3, 384 kb/s (6 ch), 48 kHz

MediaInfo

Общее
Уникальный идентификатор : 216911466344106050300631950368906891467 (0xA32FA0FB16A516D392069D6BB4CF50CB)
Полное имя : Vremya.Pervyh.2017.1080p.WEB-DL.Rus.HDCLUB.mkv
Формат : Matroska
Версия формата : Version 2
Размер файла : 4,63 Гбайт
Продолжительность : 2 ч. 14 м.
Общий поток : 4928 Кбит/сек
Название фильма : Vremya Pervyh (2017) - Release for HDCLUB
Дата кодирования : UTC 2017-05-15 09:43:17
Программа кодирования : mkvmerge v3.4.0 ('Rapunzel') built on May 15 2010 09:38:20
Библиотека кодирования : libebml v0.8.0 + libmatroska v0.9.0
Видео
Идентификатор : 1
Формат : AVC
Формат/Информация : Advanced Video Codec
Профиль формата : High@L4
Параметр CABAC формата : Да
Параметр ReFrames формата : 5 кадров
Идентификатор кодека : V_MPEG4/ISO/AVC
Продолжительность : 2 ч. 14 м.
Битрейт : 4446 Кбит/сек
Ширина : 1920 пикселей
Высота : 818 пикселей
Соотношение сторон : 2,35:1
Режим частоты кадров : Постоянный
Частота кадров : 25,000 кадров/сек
Цветовое пространство : YUV
Субдискретизация насыщенности : 4:2:0
Битовая глубина : 8 бит
Тип развёртки : Прогрессивная
Бит/(Пиксели*Кадры) : 0.113
Размер потока : 4,18 Гбайт (90%)
Заголовок : Vremya Pervyh (2017) - Release for HDCLUB
Язык : Russian
Default : Да
Forced : Нет
Цветовой диапазон : Limited
Основные цвета : BT.709
Характеристики трансфера : BT.709
Коэффициенты матрицы : BT.709
Аудио
Идентификатор : 2
Формат : AC-3
Формат/Информация : Audio Coding 3
Расширение режима : CM (complete main)
Параметр Endianness формата : Big
Идентификатор кодека : A_AC3
Продолжительность : 2 ч. 14 м.
Вид битрейта : Постоянный
Битрейт : 384 Кбит/сек
Каналы : 6 каналов
Расположение каналов : Front: L C R, Side: L R, LFE
Частота : 48,0 КГц
Частота кадров : 31,250 кадров/сек (1536 spf)
Метод сжатия : С потерями
Размер потока : 370 Мбайт (8%)
Заголовок : AC3 5.1 @ 384 kbps
Язык : Russian
Default : Да
Forced : Нет
Меню
00:00:00.000 : en:1
00:07:37.200 : en:2
00:13:56.520 : en:3
00:20:01.400 : en:4
00:26:51.760 : en:5
00:33:42.360 : en:6
00:42:02.960 : en:7
00:47:53.160 : en:8
00:53:09.640 : en:9
00:58:44.080 : en:10
01:05:06.400 : en:11
01:10:47.320 : en:12
01:17:34.240 : en:13
01:24:57.960 : en:14
01:31:20.080 : en:15
01:37:35.200 : en:16
01:43:43.240 : en:17
01:50:47.440 : en:18
01:58:48.840 : en:19
02:05:18.120 : en:20

Скриншоты

 GOLD TORRENT! DOWNLOAD TRAFFIC DOES NOT CONSIDER! 
Torrent: Registered [ 2017-10-25 08:20 ]   · 576C16F5F86A815EC863D9C2C86EEE4BAE76E279

Download .torrent

Download

12 KB

Status: checked
Completed: 0 times
Size: 4.63 GB
Поделиться:
terms.php
[Profile] [PM]
Display posts:    
Reply to topic

Current time is: 23-Oct 05:04

All times are UTC + 3



You cannot post new topics in this forum
You cannot reply to topics in this forum
You cannot edit your posts in this forum
You cannot delete your posts in this forum
You cannot vote in polls in this forum
You cannot attach files in this forum
You can download files in this forum