V.I.P. / V.I.P. (2017) BDRip 720p | L

Reply to topic
DL-List and Torrent activity
Size:  4.1 GB   |    Registered:  3 years 1 month   |    Completed:  0 times
Seeders:  32  [  0 KB/s  ]   Leechers:  1  [  0 KB/s  ]   Show peers in full details
 
   
 
 
Author Message

admin ®

Gender: Male

Longevity: 3 years 2 months

Posts: 10109

Post 25-Oct-2017 06:39

[Quote]

V.I.P. / V.I.P.
Страна: Южная Корея
Год выпуска: 2017
Жанр: боевик, триллер, криминал
Продолжительность: 02:07:54
Режиссер: Пак Хун-джон
Автор сценария: Пак Хун-джон
В ролях: Чан Дон-гон, Ким Мён-мин, Пак Хи-сун, Ли Джон-сок, Петер Стормаре, Ли Вон-хи, Чо У-джин, Тхэ Ин-хо, О Дэ-хван, Ю Джэ-мён
Описание: Сын высокопоставленного северокорейского чиновника подозревается в совершении серийных убийств в разных странах. Северная Корея, Южная Корея и Интерпол объединяют силы, чтобы доказать его виновность...

Перевод: Любительский (многоголосый, закадровый) | Храм Дорам
Субтитры: нет-Качество: BDRip 720p
Формат: MKV
Видео кодек: AVC
Аудио кодек: AС3
Видео: 1280x720 (16:9), 23.976 fps, MPEG-4 AVC ~4 246 kbps avg
Аудио: 48.0 kHz, AC3 Dolby Digital, 2/0 (L,R) ch, ~256 kbps avg
Дата премьеры (мир): 24 августа 2017

Media Info

General
Уникальный идентификатор : 185038863878220829865652851664173320104 (0x8B35305A8F87031DA0C7DFBF7F16C7A8)
Полное имя : V.I.P. 2017 BDRip 720p.mkv
Формат : Matroska
Версия формата : Version 4 / Version 2
Размер файла : 4,10 Гбайт
Продолжительность : 2 ч. 7 м.
Общий поток : 4593 Кбит/сек
Дата кодирования : UTC 2017-10-23 16:38:38
Программа кодирования : mkvmerge v6.9.1 ('Blue Panther') 32bit built on Apr 18 2014 18:15:44
Библиотека кодирования : libebml v1.3.0 + libmatroska v1.4.1
Видео
Идентификатор : 1
Формат : AVC
Формат/Информация : Advanced Video Codec
Профиль формата : High@L4.1
Параметр CABAC формата : Да
Параметр ReFrames формата : 2 кадра
Параметр GOP формата : M=3, N=13
Идентификатор кодека : V_MPEG4/ISO/AVC
Продолжительность : 2 ч. 7 м.
Битрейт : 4246 Кбит/сек
Ширина : 1280 пикселей
Высота : 720 пикселей
Соотношение сторон : 16:9
Режим частоты кадров : Постоянный
Частота кадров : 23,976 (24000/1001) кадра/сек
Цветовое пространство : YUV
Субдискретизация насыщенности : 4:2:0
Битовая глубина : 8 бит
Тип развёртки : Прогрессивная
Бит/(Пиксели*Кадры) : 0.192
Размер потока : 3,79 Гбайт (92%)
Default : Нет
Forced : Нет
Аудио
Идентификатор : 2
Формат : AC-3
Формат/Информация : Audio Coding 3
Расширение режима : CM (complete main)
Параметр Endianness формата : Big
Идентификатор кодека : A_AC3
Продолжительность : 2 ч. 7 м.
Вид битрейта : Постоянный
Битрейт : 256 Кбит/сек
Каналы : 2 канала
Расположение каналов : Front: L R
Частота : 48,0 КГц
Частота кадров : 31,250 кадров/сек (1536 spf)
Битовая глубина : 16 бит
Метод сжатия : С потерями
Задержка видео : -10 мс.
Размер потока : 234 Мбайт (6%)
Заголовок : MVO
Язык : Russian
Default : Да
Forced : Нет

Скриншоты

 GOLD TORRENT! DOWNLOAD TRAFFIC DOES NOT CONSIDER! 
Torrent: Registered [ 2017-10-25 06:39 ]   · F47A50C1A0DD5A5158572635577D4A72C6C3BFA0

Download .torrent

Download

21 KB

Status: checked
Completed: 0 times
Size: 4.1 GB
Поделиться:
terms.php
[Profile] [PM]
Display posts:    
Reply to topic

Current time is: 27-Nov 11:11

All times are UTC + 3



You cannot post new topics in this forum
You cannot reply to topics in this forum
You cannot edit your posts in this forum
You cannot delete your posts in this forum
You cannot vote in polls in this forum
You cannot attach files in this forum
You can download files in this forum