Хитровка [01-08 из 08] (2008) WEBRip-AVC от Generalfilm | КПК

Ответить на тему
Статистика раздачи
Размер:  1.54 GB   |    Зарегистрирован:  1 год 6 месяцев   |    Скачан:  0 раз
Сидов:  288  [  0 KB/s  ]   Личеров:  27  [  0 KB/s  ]   Подробная статистика пиров
 
   
 
 
Автор Сообщение

admin ®

Статус: Не в сети

Стаж: 6 лет 9 месяцев

Сообщений: 23696

Репутация: 0 [+] [-]

Откуда: Россия

Создавать темы 19-Янв-2023 03:51 | #1

[Цитировать]

Информация о фильме
Оригинальное название: Хитровка
Год выхода: 2008
Жанр: драма, экранизация
Режиссер: Александр Хван
В ролях: Сергей Карякин, Андрей Гусев, Алексей Барабаш, Варвара Андреева, Всеволод Шиловский, Владимир Андреев, Андрей Савостьянов, Вадим Андреев, Рамиль Сабитов, Владимир Новиков, Олег Мазуров, Александр Комиссаров (II), Александр Сирин, Валентин Перкин, Анна Гусарова, Станислав Житарев, Артём Маковский, Александр Негреба, Иван Агапов, Вячеслав Руднев, Павел Ремезов, В. Прохоров, Нина Лощинина, Антон Кукушкин, Александр Машатков, Нина Персиянинова, Александр Сухинин, Михаил Слесарев, Николай Качура, Анатолий Морозов, Николай Басканчин, Василий Куприянов, Максим Драченин, Ксения Хаирова, Станислав Костецкий, Евгений Данчевский, Игорь Бондаренко (III), Сергей Бирюлин, Вячеслав Рыбников, Григорий Багров, Владимир Чуприков, Ольга Озёрная, Александр Казаков (II), Олег Валкман, Максим Костромыкин, Юрий Маслак, Сергей Ганин, Владимир Петров (VI), Евгений Плиткин, Владимир Любовский, Александр Зиновьев, Юрий Лопарёв, Дмитрий Митин, Виктор Балабанов
О фильме:
Деревенский кузнец был изгнан из родной деревни. В результате он оказывается в Москве, точнее, на Хитровке. Однако он не покоряется судьбе, а делает карьеру — становится заводчиком-миллионером. По мотивам очерков Владимира Гиляровского "Москва и москвичи".

Страна: Россия
Студия: Телекомпания "ТОН"
Продолжительность: 8 x ~ 00:43:00
Перевод: Не требуется
Файл
Формат: MP4
Качество: WEBRip-AVC
Видео: MPEG-4 AVC (x264), 640x344, ~500 kbps, 25.000 fps
Аудио: AAC LC, 44.1 KHz, 2 ch, 128 Kbps
Субтитры: Нет
Семпл

Скриншоты

MI

Complete name : F:КИНОHitrovka.S01.2008.WEBRip-AVC.KPK.GFHitrovka.s01e02.2008.WEBRip-AVC.KPK.GF.mp4
Format : MPEG-4
Codec ID : M4V (isom/iso2/avc1)
File size : 197 MiB
Duration : 43 min 21 s
Overall bit rate mode : Variable
Overall bit rate : 634 kb/s
Writing application : Lavf53.19.0
Video
ID : 1
Format : AVC
Format/Info : Advanced Video Codec
Format profile : [email protected]
Format settings, CABAC : Yes
Format settings, RefFrames : 8 frames
Codec ID : avc1
Codec ID/Info : Advanced Video Coding
Duration : 43 min 21 s
Bit rate : 500 kb/s
Width : 640 pixels
Height : 344 pixels
Display aspect ratio : 1.85:1
Frame rate mode : Constant
Frame rate : 25.000 FPS
Color space : YUV
Chroma subsampling : 4:2:0
Bit depth : 8 bits
Scan type : Progressive
Bits/(Pixel*Frame) : 0.091
Stream size : 155 MiB (79%)
Writing library : x264 core 148 r2638 7599210
Encoding settings : cabac=1 / ref=8 / deblock=1:-1:-1 / analyse=0x3:0x133 / me=umh / subme=10 / psy=1 / psy_rd=1.00:0.00 / mixed_ref=1 / me_range=24 / chroma_me=1 / trellis=2 / 8x8dct=1 / cqm=0 / deadzone=21,11 / fast_pskip=1 / chroma_qp_offset=-2 / threads=6 / lookahead_threads=1 / sliced_threads=0 / nr=0 / decimate=1 / interlaced=0 / bluray_compat=0 / constrained_intra=0 / bframes=8 / b_pyramid=2 / b_adapt=2 / b_bias=0 / direct=3 / weightb=1 / open_gop=0 / weightp=2 / keyint=250 / keyint_min=126 / scenecut=40 / intra_refresh=0 / rc_lookahead=40 / rc=2pass / mbtree=1 / bitrate=500 / ratetol=1.0 / qcomp=0.60 / qpmin=0 / qpmax=69 / qpstep=4 / cplxblur=20.0 / qblur=0.5 / ip_ratio=1.40 / aq=1:1.00
Menus : 3
Audio
ID : 2
Format : AAC
Format/Info : Advanced Audio Codec
Format profile : LC
Codec ID : 40
Duration : 43 min 21 s
Bit rate mode : Variable
Bit rate : 128 kb/s
Channel(s) : 2 channels
Channel positions : Front: L R
Sampling rate : 44.1 kHz
Frame rate : 43.066 FPS (1024 SPF)
Compression mode : Lossy
Stream size : 39.7 MiB (20%)
Default : Yes
Alternate group : 1
Menus : 3
[ivtracker.org].t39547.torrent 
 ЗОЛОТАЯ РАЗДАЧА! СКАЧАННОЕ НЕ ЗАСЧИТЫВАЕТСЯ! 
Торрент: Зарегистрирован [ 2023-01-19 03:51 ] · 5537F5FE977758927E1CD9E9CD973AC28DF84B13

Скачать .torrent

Скачать

17 KB

Статус: проверено · admin · 1 год 6 месяцев назад
Скачан: 0 раз
Размер: 1.54 GB
Поделиться:
 
Похожие темы
[Профиль] [ЛС]
Вернуться к началу
Показать сообщения:    
Ответить на тему

Текущее время: 23-Июл 03:12

Часовой пояс: UTC + 3



Вы не можете начинать темы
Вы не можете отвечать на сообщения
Вы не можете редактировать свои сообщения
Вы не можете удалять свои сообщения
Вы не можете голосовать в опросах
Вы не можете прикреплять файлы к сообщениям
Вы можете скачивать файлы