Чёрная птица / Black Bird [S01] (2022) WEB-DL 1080p | Пифагор

Reply to topic
DL-List and Torrent activity [Update пиров]
Size:  28.33 GB   |    Registered:  13 days   |    Completed:  0 times
Seeders:  491  [  0 KB/s  ]   Leechers:  219  [  0 KB/s  ]   Show peers in full details
 
   
 
 
Author Message

admin ®

Gender: Male

Longevity: 4 years 10 months

Posts: 20129

Location: Россия

Post 06-Aug-2022 04:59

[Quote]

Чёрная птица / Black Bird
Страна: США
Год выпуска: 2022
Жанр: триллер, драма, криминал
Продолжительность: ~00:57:00 серия
Перевод: Профессиональный (дублированный) | Пифагор
Режиссёр: Михаэль Р. Роскам, Джо Чаппелль, Джим МакКэй
В ролях: Тэрон Эджертон, Пол Уолтер Хаузер, Рэй Лиотта, Грег Киннер, Зепиде Моафи, Каллен Мосс, Робин Малкольм, Роберт Уокер-Бранчад, Джеймс Дюмон, Роберт Диаго Доки, Джо Уильямсон, Уолкер Бэбингтон, Александр Бабара, Сесилия Лил, Рейчел Уитмен, Лейни Стибинг
Описание: Сериал основан на реальных событиях. Сыну полицейского Джеймсу Кину, отбывающему десятилетний срок за продажу наркотиков, предлагают сильно смягчить приговор. Для этого парню необходимо перейти в тюрьму строгого режима, сблизиться с серийным убийцей Ларри Холлом и узнать побольше о преступлениях, в которых тот подозревается. А в идеале — добиться от Холла полного признания. Для Кина это единственный шанс выйти на свободу, но маньяк затевает с ним хитрую психологическую игру.

Качество: WEB-DL 1080p
Контейнер: MKV
Видео: AVC, 1920x960 (2.000), 23.976 fps, ~10 mbps
Аудио №1 Rus: E-AC3 ATMOS, 6 ch, 48 kHz, 768 kbps
Аудио №2 Eng: E-AC3 ATMOS, 6 ch, 48 kHz, 768 kbps
Субтитры: Русские (Forced, Full, SDH), английские (Full, SDH), иврит, украинские
Реклама: Отсутствует

Список серий

01. Пилотная серия — Pilot
02. Реконструктор — We Are Coming, Father Abraham
03. Всё по зубам — Hand to Mouth
04. Как-её-там — WhatsHerName
05. Где это было — The Place I Lie
06. Ты обещал — You Promised

MediaInfo

General
Unique ID : 6517729637073876716998935113783975712 (0x4E744E19FB1CAC6F97E2AB1EAF21F20)
Complete name : Black.Bird.S01E01.Pilot.1080p.ATVP.WEB-DL.DDP5.1.H.264-EniaHD.mkv
Format : Matroska
Format version : Version 4
File size : 4.66 GiB
Duration : 57 min 48 s
Overall bit rate : 11.5 Mb/s
Movie name : Black Bird S01E01 [Pilot] - EniaHD
Writing application : mkvmerge v57.0.0 ('Till The End') 64-bit
Writing library : libebml v1.4.2 + libmatroska v1.6.4
Video
ID : 1
Format : AVC
Format/Info : Advanced Video Codec
Format profile : High@L4
Format settings : CABAC / 4 Ref Frames
Format settings, CABAC : Yes
Format settings, Reference fra : 4 frames
Codec ID : V_MPEG4/ISO/AVC
Duration : 57 min 48 s
Bit rate : 10.0 Mb/s
Width : 1 920 pixels
Height : 960 pixels
Display aspect ratio : 2.000
Frame rate mode : Constant
Frame rate : 23.976 (24000/1001) FPS
Color space : YUV
Chroma subsampling : 4:2:0
Bit depth : 8 bits
Scan type : Progressive
Bits/(Pixel*Frame) : 0.226
Stream size : 4.04 GiB (87%)
Default : Yes
Forced : No
Color range : Limited
Color primaries : BT.709
Transfer characteristics : BT.709
Matrix coefficients : BT.709
Audio #1
ID : 2
Format : E-AC-3 JOC
Format/Info : Enhanced AC-3 with Joint Object Coding
Commercial name : Dolby Digital Plus with Dolby Atmos
Codec ID : A_EAC3
Duration : 57 min 48 s
Bit rate mode : Constant
Bit rate : 768 kb/s
Channel(s) : 6 channels
Channel layout : L R C LFE Ls Rs
Sampling rate : 48.0 kHz
Frame rate : 31.250 FPS (1536 SPF)
Compression mode : Lossy
Stream size : 318 MiB (7%)
Language : Russian
Service kind : Complete Main
Default : Yes
Forced : No
Complexity index : 16
Number of dynamic objects : 15
Bed channel count : 1 channel
Bed channel configuration : LFE
Audio #2
ID : 3
Format : E-AC-3 JOC
Format/Info : Enhanced AC-3 with Joint Object Coding
Commercial name : Dolby Digital Plus with Dolby Atmos
Codec ID : A_EAC3
Duration : 57 min 48 s
Bit rate mode : Constant
Bit rate : 768 kb/s
Channel(s) : 6 channels
Channel layout : L R C LFE Ls Rs
Sampling rate : 48.0 kHz
Frame rate : 31.250 FPS (1536 SPF)
Compression mode : Lossy
Stream size : 318 MiB (7%)
Language : English
Service kind : Complete Main
Default : No
Forced : No
Complexity index : 16
Number of dynamic objects : 15
Bed channel count : 1 channel
Bed channel configuration : LFE
Text #1
ID : 4
Format : UTF-8
Codec ID : S_TEXT/UTF8
Codec ID/Info : UTF-8 Plain Text
Duration : 56 min 12 s
Bit rate : 3 b/s
Count of elements : 25
Stream size : 1.28 KiB (0%)
Title : Forced
Language : Russian
Default : Yes
Forced : No
Text #2
ID : 5
Format : UTF-8
Codec ID : S_TEXT/UTF8
Codec ID/Info : UTF-8 Plain Text
Duration : 56 min 41 s
Bit rate : 89 b/s
Count of elements : 735
Stream size : 37.0 KiB (0%)
Language : Russian
Default : No
Forced : No
Text #3
ID : 6
Format : UTF-8
Codec ID : S_TEXT/UTF8
Codec ID/Info : UTF-8 Plain Text
Duration : 56 min 12 s
Bit rate : 99 b/s
Count of elements : 794
Stream size : 41.0 KiB (0%)
Title : SDH
Language : Russian
Default : No
Forced : No
Text #4
ID : 7
Format : UTF-8
Codec ID : S_TEXT/UTF8
Codec ID/Info : UTF-8 Plain Text
Duration : 54 min 28 s
Bit rate : 57 b/s
Count of elements : 709
Stream size : 23.1 KiB (0%)
Language : English
Default : No
Forced : No
Text #5
ID : 8
Format : UTF-8
Codec ID : S_TEXT/UTF8
Codec ID/Info : UTF-8 Plain Text
Duration : 54 min 28 s
Bit rate : 64 b/s
Count of elements : 769
Stream size : 25.6 KiB (0%)
Title : SDH
Language : English
Default : No
Forced : No
Text #6
ID : 9
Format : UTF-8
Codec ID : S_TEXT/UTF8
Codec ID/Info : UTF-8 Plain Text
Duration : 56 min 41 s
Bit rate : 77 b/s
Count of elements : 734
Stream size : 32.2 KiB (0%)
Language : Hebrew
Default : No
Forced : No
Text #7
ID : 10
Format : UTF-8
Codec ID : S_TEXT/UTF8
Codec ID/Info : UTF-8 Plain Text
Duration : 56 min 41 s
Bit rate : 86 b/s
Count of elements : 731
Stream size : 35.9 KiB (0%)
Language : Ukrainian
Default : No
Forced : No

Скриншоты



 GOLD TORRENT! DOWNLOAD TRAFFIC DOES NOT CONSIDER! 
Torrent: Registered [ 2022-08-06 04:59 ]   · 92100FF333F516A371CC7CE58BFB6B3EDE73EE09

Download .torrent

Download

72 KB

Status: checked
Completed: 0 times
Size: 28.33 GB
Поделиться:
terms.php
[Profile] [PM]
Display posts:    
Reply to topic

Current time is: 19-Aug 16:45

All times are UTC + 3



You cannot post new topics in this forum
You cannot reply to topics in this forum
You cannot edit your posts in this forum
You cannot delete your posts in this forum
You cannot vote in polls in this forum
You cannot attach files in this forum
You can download files in this forum