Миньоны: Грювитация / Minions: The Rise of Gru (2022) WEB-DLRip 720p от DoMiNo & селезень | Jaskier

Ответить на тему
Статистика раздачи
Размер:  2.46 GB   |    Зарегистрирован:  1 год 11 месяцев   |    Скачан:  1 раз

Полного источника не было: 1 год

 
   
 
 
Автор Сообщение

admin ®

Статус: Не в сети

Стаж: 6 лет 9 месяцев

Сообщений: 23696

Репутация: 0 [+] [-]

Откуда: Россия

Создавать темы 05-Авг-2022 04:08 | #1

[Цитировать]

Информация о фильме
Название: Миньоны: Грювитация
Оригинальное название: Minions: The Rise of Gru
Год выхода: 2022
Жанр: мультфильм, фантастика, комедия, криминал, приключения, семейный
Режиссер: Кайл Балда, Брэд Эблесон, Джонатан дель Валь
В ролях: Стив Карелл, Пьер Коффан, Алан Аркин, Тараджи П. Хенсон, Мишель Йео, Джули Эндрюс, Расселл Брэнд, Жан-Клод Ван Дамм, Дольф Лундгрен, Дэнни Трехо и др.
О фильме:
Миллион лет миньоны искали самого великого и ужасного предводителя, пока не встретили ЕГО. Знакомьтесь — Грю. Пусть он еще очень молод, но у него в планах по-настоящему гадкие дела, которые заставят планету содрогнуться.

Страна: США
Студия: Illumination Entertainment, Universal Pictures
Продолжительность: 01:27:35
Перевод: Профессиональный (многоголосый, закадровый) | Jaskier
Субтитры: Русские (Full / Cool Story Blog), английские (Full, SDH)
Файл
Формат: Matroska
Качество: WEB-DLRip 720p
Видео: 1272x530 at 23.976 fps, [email protected], ~3119 kbps
Аудио 1: AC3, 6 ch, ~448 kbps - | Русский |
Аудио 2: AC3, 6 ch, ~448 kbps - | Английский |
Формат субтитров: softsub (SRT)

Скриншоты


M/I

x264 [info]: frame I:1055 Avg QP:18.64 size: 86953
x264 [info]: frame P:33703 Avg QP:19.05 size: 30412
x264 [info]: frame B:91258 Avg QP:20.08 size: 10218
General
Unique ID : 156030346210322079325965595190335729138 (0x75625A02746B32A77AD92A3A341D6DF2)
Complete name : L:Minions.The.Rise.of.Gru.2022.WEB-DLRip.720p.x264.seleZen.mkv
Format : Matroska
Format version : Version 4
File size : 2.46 GiB
Duration : 1 h 27 min
Overall bit rate : 4 017 kb/s
Movie name : Minions.The.Rise.of.Gru.2022.WEB-DLRip.720p.x264.seleZen
Encoded date : UTC 2022-08-04 14:54:41
Writing application : mkvmerge v63.0.0 ('Everything') 64-bit
Writing library : libebml v1.4.2 + libmatroska v1.6.4
Cover : Yes
Attachments : cover.jpg / small_cover.jpg
Video
ID : 1
Format : AVC
Format/Info : Advanced Video Codec
Format profile : [email protected]
Format settings : CABAC / 12 Ref Frames
Format settings, CABAC : Yes
Format settings, Reference : 12 frames
Codec ID : V_MPEG4/ISO/AVC
Duration : 1 h 27 min
Bit rate : 3 119 kb/s
Width : 1 272 pixels
Height : 530 pixels
Display aspect ratio : 2.40:1
Frame rate mode : Constant
Frame rate : 23.976 (24000/1001) FPS
Color space : YUV
Chroma subsampling : 4:2:0
Bit depth : 8 bits
Scan type : Progressive
Bits/(Pixel*Frame) : 0.193
Stream size : 1.91 GiB (78%)
Title : -=DoMiNo=-
Writing library : x264 core 164 by -=DoMiNo=-
Encoding settings : cabac=1 / ref=12 / deblock=1:-3:-3 / analyse=0x3:0x133 / me=umh / subme=9 / psy=1 / psy_rd=1.05:0.15 / mixed_ref=1 / me_range=32 / chroma_me=1 / trellis=2 / 8x8dct=1 / cqm=0 / deadzone=21,11 / fast_pskip=0 / chroma_qp_offset=-3 / threads=17 / lookahead_threads=4 / sliced_threads=0 / nr=0 / decimate=0 / interlaced=0 / bluray_compat=0 / constrained_intra=0 / bframes=10 / b_pyramid=2 / b_adapt=2 / b_bias=0 / direct=1 / weightb=1 / open_gop=0 / weightp=2 / keyint=250 / keyint_min=23 / scenecut=40 / intra_refresh=0 / rc_lookahead=60 / rc=crf / mbtree=0 / crf=20.0 / qcomp=0.65 / qpmin=0 / qpmax=69 / qpstep=4 / vbv_maxrate=50000 / vbv_bufsize=62500 / crf_max=0.0 / nal_hrd=none / filler=0 / ip_ratio=1.30 / pb_ratio=1.20 / aq=1:0.90
Language : English
Default : Yes
Forced : No
Audio #1
ID : 2
Format : AC-3
Format/Info : Audio Coding 3
Commercial name : Dolby Digital
Codec ID : A_AC3
Duration : 1 h 27 min
Bit rate mode : Constant
Bit rate : 448 kb/s
Channel(s) : 6 channels
Channel layout : L R C LFE Ls Rs
Sampling rate : 48.0 kHz
Frame rate : 31.250 FPS (1536 SPF)
Compression mode : Lossy
Stream size : 281 MiB (11%)
Title : MVO [Jaskier]
Language : Russian
Service kind : Complete Main
Default : Yes
Forced : Yes
Audio #2
ID : 3
Format : AC-3
Format/Info : Audio Coding 3
Commercial name : Dolby Digital
Codec ID : A_AC3
Duration : 1 h 27 min
Bit rate mode : Constant
Bit rate : 448 kb/s
Channel(s) : 6 channels
Channel layout : L R C LFE Ls Rs
Sampling rate : 48.0 kHz
Frame rate : 31.250 FPS (1536 SPF)
Compression mode : Lossy
Stream size : 280 MiB (11%)
Title : Original
Language : English
Service kind : Complete Main
Default : No
Forced : No
Text #1
ID : 4
Format : UTF-8
Codec ID : S_TEXT/UTF8
Codec ID/Info : UTF-8 Plain Text
Duration : 1 h 19 min
Bit rate : 59 b/s
Count of elements : 816
Stream size : 34.7 KiB (0%)
Title : Full [Cool Story Blog]
Language : Russian
Default : No
Forced : No
Text #2
ID : 5
Format : UTF-8
Codec ID : S_TEXT/UTF8
Codec ID/Info : UTF-8 Plain Text
Duration : 1 h 26 min
Bit rate : 44 b/s
Count of elements : 1238
Stream size : 28.1 KiB (0%)
Title : Full
Language : English
Default : No
Forced : No
Text #3
ID : 6
Format : UTF-8
Codec ID : S_TEXT/UTF8
Codec ID/Info : UTF-8 Plain Text
Duration : 1 h 27 min
Bit rate : 69 b/s
Count of elements : 1892
Stream size : 44.5 KiB (0%)
Title : SDH
Language : English
Default : No
Forced : No
Menu
00:00:00.000 : en:Chapter 01
00:02:21.558 : en:Chapter 02
00:07:38.083 : en:Chapter 03
00:12:47.684 : en:Chapter 04
00:17:50.528 : en:Chapter 05
00:20:46.329 : en:Chapter 06
00:26:20.538 : en:Chapter 07
00:29:01.658 : en:Chapter 08
00:33:33.430 : en:Chapter 09
00:38:49.454 : en:Chapter 10
00:43:23.770 : en:Chapter 11
00:48:59.773 : en:Chapter 12
00:50:27.068 : en:Chapter 13
00:55:39.631 : en:Chapter 14
01:00:00.975 : en:Chapter 15
01:05:33.058 : en:Chapter 16
01:07:40.977 : en:Chapter 17
01:10:58.133 : en:Chapter 18
01:16:26.169 : en:Chapter 19
01:19:31.104 : en:Chapter 20
[ivtracker.org].t36652.torrent 
 ЗОЛОТАЯ РАЗДАЧА! СКАЧАННОЕ НЕ ЗАСЧИТЫВАЕТСЯ! 
Торрент: Зарегистрирован [ 2022-08-05 04:08 ] · EF5C6FB11DF091ADAD940DB1C659102074D992DC

Скачать .torrent

Скачать

99 KB

Статус: проверено · admin · 1 год 11 месяцев назад
Скачан: 1 раз
Размер: 2.46 GB
Поделиться:
 
Похожие темы
[Профиль] [ЛС]
Вернуться к началу
Показать сообщения:    
Ответить на тему

Текущее время: 13-Июл 02:40

Часовой пояс: UTC + 3



Вы не можете начинать темы
Вы не можете отвечать на сообщения
Вы не можете редактировать свои сообщения
Вы не можете удалять свои сообщения
Вы не можете голосовать в опросах
Вы не можете прикреплять файлы к сообщениям
Вы можете скачивать файлы