Тачки 3 / Cars 3 (2017) WEB-DL 720p от ExKinoRay | iTunes

Reply to topic
DL-List and Torrent activity
Size:  3.41 GB   |    Registered:  3 years   |    Completed:  0 times
Seeders:  26  [  0 KB/s  ]   Leechers:  14  [  0 KB/s  ]   Show peers in full details
 
   
 
 
Author Message

admin ®

Gender: Male

Longevity: 3 years 1 month

Posts: 10044

Post 23-Oct-2017 04:04

[Quote]

[img=right] Информация о фильме
Название: Тачки 3
Оригинальное название: Cars 3
Год выхода: 2017
Жанр: Мультфильм, комедия, приключения, семейный, спорт, полнометражный
Режиссер: Джон Лассетер, Джо Рэнфт
В ролях: Оуэн Уилсон, Пол Ньюман, Бонни Хант, Ларри Кейбл Гай, Чич Марин, Тони Шэлоуб, Гуидо Куарони, Дженифер Льюис, Пол Дули, Майкл Уоллис
О фильме:
Герой все еще продолжает показывать лучшие результаты на всех турнирах, однако победы даются ему не так легко, а конкуренция становится все жестче. Молнию Маккуина ждут захватывающие приключения, где он встретит новых друзей, а также поймет, что не только скорость и мощность мотора делают гонщика чемпионом.


Страна: США
Студия: Walt Disney Pictures, Pixar Animation Studios
Продолжительность: 01:42:23
Перевод: Дублированный | iTunes
Файл
Качество: WEB-DL 720p
Видео: MPEG-4 AVC, 1280x536, 3998 Кbit/s, 23.976 fps
Звук:
Аудио #01: 48 kHz, AC3, 5.1, 384 Kbps | Дублированный | iTunes | RUS |
Аудио #02: 48 kHz, AC3, 5.1, 384 Kbps | Оригинал | ENG |
Субтитры: Русские

Скриншоты

MI

General
Unique ID : 174599826484530063880024936892505997494 (0x835AB412C095EC3FA8DEE3705EBF40B6)
Complete name : G:VideoSSDCars.3.2017.WEB-DL.720p.ExKinoRay.mkv
Format : Matroska
Format version : Version 4 / Version 2
File size : 3.41 GiB
Duration : 1 h 42 min
Overall bit rate : 4 768 kb/s
Encoded date : UTC 2017-10-22 18:27:53
Writing application : mkvmerge v17.0.0 ('Be Ur Friend') 64-bit
Writing library : libebml v1.3.5 + libmatroska v1.4.8
Video
ID : 1
Format : AVC
Format/Info : Advanced Video Codec
Format profile : Main@L3.1
Format settings : 2 Ref Frames
Format settings, CABAC : No
Format settings, RefFrames : 2 frames
Codec ID : V_MPEG4/ISO/AVC
Duration : 1 h 42 min
Bit rate : 3 998 kb/s
Width : 1 280 pixels
Height : 536 pixels
Display aspect ratio : 2.40:1
Frame rate mode : Constant
Frame rate : 23.976 (24000/1001) FPS
Color space : YUV
Chroma subsampling : 4:2:0
Bit depth : 8 bits
Scan type : Progressive
Bits/(Pixel*Frame) : 0.243
Stream size : 2.86 GiB (84%)
Language : English
Default : Yes
Forced : No
Color range : Limited
Color primaries : BT.709
Transfer characteristics : BT.709
Matrix coefficients : BT.709
Audio #1
ID : 2
Format : AC-3
Format/Info : Audio Coding 3
Format settings, Endianness : Big
Codec ID : A_AC3
Duration : 1 h 42 min
Bit rate mode : Constant
Bit rate : 384 kb/s
Channel(s) : 6 channels
Channel positions : Front: L C R, Side: L R, LFE
Sampling rate : 48.0 kHz
Frame rate : 31.250 FPS (1536 SPF)
Bit depth : 16 bits
Compression mode : Lossy
Stream size : 281 MiB (8%)
Title : iTunes
Language : Russian
Service kind : Complete Main
Default : Yes
Forced : No
Audio #2
ID : 3
Format : AC-3
Format/Info : Audio Coding 3
Format settings, Endianness : Big
Codec ID : A_AC3
Duration : 1 h 42 min
Bit rate mode : Constant
Bit rate : 384 kb/s
Channel(s) : 6 channels
Channel positions : Front: L C R, Side: L R, LFE
Sampling rate : 48.0 kHz
Frame rate : 31.250 FPS (1536 SPF)
Bit depth : 16 bits
Compression mode : Lossy
Stream size : 281 MiB (8%)
Title : Original
Language : English
Service kind : Complete Main
Default : No
Forced : No
Text
ID : 4
Format : UTF-8
Codec ID : S_TEXT/UTF8
Codec ID/Info : UTF-8 Plain Text
Duration : 1 h 40 min
Bit rate : 130 b/s
Count of elements : 1420
Stream size : 96.6 KiB (0%)
Title : Full
Language : Russian
Default : No
Forced : No
Menu
00:00:00.000 : en:Champ McQueen
00:04:57.000 : en:Storm Front
00:10:54.000 : en:Crash
00:13:57.000 : en:Wake-up Call
00:18:14.000 : en:Phone Call
00:21:07.000 : en:Modern Training
00:34:09.000 : en:Deal
00:37:52.000 : en:Beach
00:42:44.000 : en:Crazy Eight
00:49:44.000 : en:Cruz's Dream
00:53:57.000 : en:FaceTime
00:58:17.000 : en:Olive Branch
00:59:27.000 : en:Smokey
01:02:16.000 : en:Hud's Win
01:06:35.000 : en:It's Over
01:08:33.000 : en:Old School Training
01:15:47.000 : en:Florida Arrival
01:20:57.000 : en:Pit Stop
01:29:42.000 : en:Victory Lane
01:32:17.000 : en:Epilogue
01:34:00.000 : en:End Credits
 GOLD TORRENT! DOWNLOAD TRAFFIC DOES NOT CONSIDER! 
Torrent: Registered [ 2017-10-23 04:04 ]   · 532A6E24B8FBA5C37EDB786F838A199D59404175

Download .torrent

Download

18 KB

Status: checked
Completed: 0 times
Size: 3.41 GB
Поделиться:
terms.php
[Profile] [PM]
Display posts:    
Reply to topic

Current time is: 28-Oct 03:00

All times are UTC + 3



You cannot post new topics in this forum
You cannot reply to topics in this forum
You cannot edit your posts in this forum
You cannot delete your posts in this forum
You cannot vote in polls in this forum
You cannot attach files in this forum
You can download files in this forum