Приключения царя / Olympicos (2021) WEB-DL 1080p | D | Локализованная версия

Ответить на тему
Статистика раздачи
Размер:  3.48 GB   |    Зарегистрирован:  2 года   |    Скачан:  0 раз

Полного источника не было: Никогда

 
   
 
 
Автор Сообщение

admin ®

Статус: Не в сети

Стаж: 6 лет 9 месяцев

Сообщений: 23696

Репутация: 0 [+] [-]

Откуда: Россия

Создавать темы 08-Июл-2022 01:27 | #1

[Цитировать]

Информация о фильме
Название: Приключения царя
Оригинальное название: Olympicos
Год выхода: 2021
Жанр: Мультфильм
Режиссер: Давид Саакянц, Айк Саакянц
В ролях: Арман Навасардян, Мкртыч Арзуманян, Джульетта Степанян, Грант Тохатян, Арташес Алексанян, Заруи Бабаян, Григор Багдасарян, Нарек Дурян, Армен Газарян, Арсен Григорян, Левон Арутюнян, Каик Оганесян, Виген Степанян, Лилит Тохатян, Самвел Топалян, Вардан Задоян, Давид Бабаян
О фильме:
История эта случилась давным-давно - во время античной Олимпиады, когда в Грецию со всех сторон света съезжались лучшие атлеты. Среди славных спортсменов оказался самый настоящий Царь, прибывший из одного далекого, но очень солнечного тридевятого царства. Вместе с ним в команде - прекрасная жена, острая на язык теща, смышленая дочурка и даже домашний аист… С такой поддержкой - победа гарантирована! Но только вот незадача: их буквально по пятам преследует заклятый враг царя. Коварный злодей хочет погубить правителя за пределами его страны и занять трон.

Страна: Армения
Студия: Анимационная студия Роберта Саакянца, Sharm Pictures
Продолжительность: 01:14:24
Перевод: Дублированный | KION
Примечание: Без рекламы
Файл
Формат: MKV
Качество: WEB-DL 1080p | Локализованная версия
Видео: MPEG-4 AVC, 6144 Кбит/с, 1920x1080
Звук: AC3, 6 ch, 640 Кбит/с
Субтитры: Отсутствуют
Семпл

Скриншоты

MI

Общее
Уникальный идентификатор : 89643347313653393347032079199594657688 (0x4370AE41BE039F2E1A8359F16DB0B798)
Полное имя : D:Olympicos.2021.WEB-DL.1080p.mkv
Формат : Matroska
Версия формата : Version 4
Размер файла : 3,48 Гбайт
Продолжительность : 1 ч. 14 м.
Режим общего битрейта : Постоянный
Общий поток : 6 690 Кбит/сек
Название фильма : Olympicos.2021.WEB-DL.1080p
Дата кодирования : UTC 2022-07-07 13:50:25
Программа кодирования : mkvmerge v68.0.0 ('The Curtain') 64-bit
Библиотека кодирования : libebml v1.4.2 + libmatroska v1.6.4
Attachments : poster.jpeg
Видео
Идентификатор : 1
Формат : AVC
Формат/Информация : Advanced Video Codec
Профиль формата : Baseline@L4
Настройки формата : 2 Ref Frames
Параметр CABAC формата : Нет
Параметр RefFrames формата : 2 кадра
Параметр GOP формата : M=1, N=25
Идентификатор кодека : V_MPEG4/ISO/AVC
Продолжительность : 1 ч. 14 м.
Вид битрейта : Постоянный
Битрейт : 6 144 Кбит/сек
Ширина : 1 920 пикселей
Высота : 1 080 пикселей
Соотношение сторон : 16:9
Режим частоты кадров : Постоянный
Частота кадров : 25,000 кадров/сек
Цветовое пространство : YUV
Субдискретизация насыщенности : 4:2:0
Битовая глубина : 8 бит
Тип развёртки : Прогрессивная
Бит/(Пиксели*Кадры) : 0.119
Размер потока : 3,14 Гбайт (90%)
Default : Да
Forced : Нет
Аудио
Идентификатор : 2
Формат : AC-3
Формат/Информация : Audio Coding 3
Коммерческое название : Dolby Digital
Идентификатор кодека : A_AC3
Продолжительность : 1 ч. 14 м.
Вид битрейта : Постоянный
Битрейт : 640 Кбит/сек
Каналы : 6 каналов
Channel layout : L R C LFE Ls Rs
Частота : 48,0 КГц
Частота кадров : 31,250 кадров/сек (1536 SPF)
Метод сжатия : С потерями
Размер потока : 341 Мбайт (10%)
Заголовок : [AC3 Audio]
Язык : Russian
Service kind : Complete Main
Default : Да
Forced : Нет
[ivtracker.org].t35639.torrent 
 ЗОЛОТАЯ РАЗДАЧА! СКАЧАННОЕ НЕ ЗАСЧИТЫВАЕТСЯ! 
Торрент: Зарегистрирован [ 2022-07-08 01:27 ] · 023E317F73CEFC2602F4F799A2FDF9F50D911BC1

Скачать .torrent

Скачать

18 KB

Статус: проверено · admin · 2 года назад
Скачан: 0 раз
Размер: 3.48 GB
Поделиться:
 
Похожие темы
[Профиль] [ЛС]
Вернуться к началу
Показать сообщения:    
Ответить на тему

Текущее время: 13-Июл 02:06

Часовой пояс: UTC + 3



Вы не можете начинать темы
Вы не можете отвечать на сообщения
Вы не можете редактировать свои сообщения
Вы не можете удалять свои сообщения
Вы не можете голосовать в опросах
Вы не можете прикреплять файлы к сообщениям
Вы можете скачивать файлы