Мегрэ и таинственная девушка / Maigret (2022) BDRip 1080p от селезень | D

Reply to topic
DL-List and Torrent activity [Update пиров]
Size:  9.49 GB   |    Registered:  2 days 21 hour   |    Completed:  0 times
Seeders:  5  [  0 KB/s  ]   Leechers:  1  [  0 KB/s  ]   Show peers in full details
 
   
 
 
Author Message

admin ®

Gender: Male

Longevity: 4 years 9 months

Posts: 18801

Location: Россия

Post 23-Jun-2022 13:44

[Quote]

Информация о фильме
Название: Мегрэ и таинственная девушка
Оригинальное название: Maigret
Год выхода: 2022
Жанр: Детектив, криминал
Режиссер: Патрис Леконт
В ролях: Жерар Депардье, Аврора Клеман, Мелани Бернье, Энн Лорье, Клара Антунс, Джон Сехил, Норберт Феррер, Жад Лабесте, Бертран Понсе

О фильме: Однажды утром в самом центре Парижа находят тело девушки, одетой в вечернее платье. Рядом с красавицей не обнаружено ни сумочки, ни документов. Легендарный комиссар Мегрэ должен разобраться, что же случилось с несчастной.
Страна: Франция, Бельгия
Студия: Canal+ [fr], Ciné, F Comme Film
Продолжительность: 01:28:19
Перевод: Дублированный | СиПиАй Филмз / CPI Films
Качество: BDRip 1080p
Видео: MPEG-4 AVC, 1920x800, 13.9 Mbit/s, 24.000 fps
Аудио #01: 48 kHz, AC3, 5.1, 448 Kbps | Дублированный | СиПиАй Филмз / CPI Films | RUS |
Аудио #02: 48 kHz, E-AC3, 5.1, 448 Kbps | Дублированный | СиПиАй Филмз / CPI Films | RUS |
Аудио #03: 48 kHz, AC3, 5.1, 640 Kbps | Оригинал | FRE |
Субтитры: Французские

Скриншоты

MI

General
Unique ID : 176411741017879160970065950009680712449 (0x84B7AA5B602B5CBD9F3480A30FDBD301)
Complete name : D:Video1Maigret.2022.BDRip.1080p.seleZen.mkv
Format : Matroska
Format version : Version 4
File size : 9.49 GiB
Duration : 1 h 28 min
Overall bit rate : 15.4 Mb/s
Movie name : Maigret 2022 from seleZen
Encoded date : UTC 2022-06-22 21:24:16
Writing application : mkvmerge v59.0.0 ('Shining Star') 64-bit
Writing library : libebml v1.4.2 + libmatroska v1.6.4
Video
ID : 1
Format : AVC
Format/Info : Advanced Video Codec
Format profile : High@L4.1
Format settings : CABAC / 5 Ref Frames
Format settings, CABAC : Yes
Format settings, Reference : 5 frames
Codec ID : V_MPEG4/ISO/AVC
Duration : 1 h 28 min
Bit rate : 13.9 Mb/s
Width : 1 920 pixels
Height : 800 pixels
Display aspect ratio : 2.40:1
Frame rate mode : Constant
Frame rate : 24.000 FPS
Color space : YUV
Chroma subsampling : 4:2:0
Bit depth : 8 bits
Scan type : Progressive
Bits/(Pixel*Frame) : 0.376
Stream size : 8.54 GiB (90%)
Writing library : x264 core 146 -from seleZen
Encoding settings : cabac=1 / ref=5 / deblock=1:-2:-2 / analyse=0x3:0x133 / me=umh / subme=11 / psy=1 / psy_rd=1.02:0.03 / mixed_ref=1 / me_range=48 / chroma_me=1 / trellis=2 / 8x8dct=1 / cqm=0 / deadzone=21,11 / fast_pskip=0 / chroma_qp_offset=-3 / threads=72 / lookahead_threads=6 / sliced_threads=0 / nr=0 / decimate=0 / interlaced=0 / bluray_compat=0 / constrained_intra=0 / bframes=10 / b_pyramid=2 / b_adapt=2 / b_bias=0 / direct=3 / weightb=1 / open_gop=0 / weightp=2 / keyint=240 / keyint_min=23 / scenecut=40 / intra_refresh=0 / rc_lookahead=50 / rc=2pass / mbtree=0 / bitrate=13865 / ratetol=1.0 / qcomp=0.60 / qpmin=0 / qpmax=51 / qpstep=4 / cplxblur=20.0 / qblur=0.5 / vbv_maxrate=50000 / vbv_bufsize=62500 / nal_hrd=none / filler=0 / ip_ratio=1.40 / pb_ratio=1.30 / aq=3:0.80
Language : English
Default : Yes
Forced : No
Audio #1
ID : 2
Format : AC-3
Format/Info : Audio Coding 3
Commercial name : Dolby Digital
Codec ID : A_AC3
Duration : 1 h 28 min
Bit rate mode : Constant
Bit rate : 448 kb/s
Channel(s) : 6 channels
Channel layout : L R C LFE Ls Rs
Sampling rate : 48.0 kHz
Frame rate : 31.250 FPS (1536 SPF)
Compression mode : Lossy
Stream size : 283 MiB (3%)
Title : Dub
Language : Russian
Service kind : Complete Main
Default : Yes
Forced : Yes
Audio #2
ID : 3
Format : E-AC-3
Format/Info : Enhanced AC-3
Commercial name : Dolby Digital Plus
Codec ID : A_EAC3
Duration : 1 h 28 min
Bit rate mode : Constant
Bit rate : 448 kb/s
Channel(s) : 6 channels
Channel layout : L R C LFE Ls Rs
Sampling rate : 48.0 kHz
Frame rate : 31.250 FPS (1536 SPF)
Compression mode : Lossy
Stream size : 283 MiB (3%)
Title : Dub
Language : Russian
Service kind : Complete Main
Default : No
Forced : No
Audio #3
ID : 4
Format : AC-3
Format/Info : Audio Coding 3
Commercial name : Dolby Digital
Codec ID : A_AC3
Duration : 1 h 28 min
Bit rate mode : Constant
Bit rate : 640 kb/s
Channel(s) : 6 channels
Channel layout : L R C LFE Ls Rs
Sampling rate : 48.0 kHz
Frame rate : 31.250 FPS (1536 SPF)
Compression mode : Lossy
Stream size : 404 MiB (4%)
Title : Original
Language : French
Service kind : Complete Main
Default : No
Forced : No
Text
ID : 5
Format : UTF-8
Codec ID : S_TEXT/UTF8
Codec ID/Info : UTF-8 Plain Text
Duration : 1 h 26 min
Bit rate : 62 b/s
Count of elements : 1070
Stream size : 39.7 KiB (0%)
Title : Full
Language : French
Default : No
Forced : No
Menu
00:00:00.000 : :Chapter 01
00:06:46.833 : :Chapter 02
00:14:34.542 : :Chapter 03
00:19:41.000 : :Chapter 04
00:29:16.333 : :Chapter 05
00:34:53.583 : :Chapter 06
00:42:21.833 : :Chapter 07
00:48:51.083 : :Chapter 08
00:56:51.333 : :Chapter 09
01:02:28.250 : :Chapter 10
01:09:22.042 : :Chapter 11
01:16:44.458 : :Chapter 12
 GOLD TORRENT! DOWNLOAD TRAFFIC DOES NOT CONSIDER! 
Torrent: Registered [ 2022-06-23 13:44 ]   · E46D5E0C498C8A9C47D0CA8B2A5A841E33867813

Download .torrent

Download

191 KB

Status: checked
Completed: 0 times
Size: 9.49 GB
Поделиться:
terms.php
[Profile] [PM]
Display posts:    
Reply to topic

Current time is: 26-Jun 11:01

All times are UTC + 3



You cannot post new topics in this forum
You cannot reply to topics in this forum
You cannot edit your posts in this forum
You cannot delete your posts in this forum
You cannot vote in polls in this forum
You cannot attach files in this forum
You can download files in this forum