Плохие парни / The Bad Guys (2022) BDRip 720p от селезень | D, P

Ответить на тему
Статистика раздачи
Размер:  7.8 GB   |    Зарегистрирован:  2 года 1 месяц   |    Скачан:  0 раз

Полного источника не было: Никогда

 
   
 
 
Автор Сообщение

admin ®

Статус: Не в сети

Стаж: 6 лет 9 месяцев

Сообщений: 23696

Репутация: 0 [+] [-]

Откуда: Россия

Создавать темы 06-Июн-2022 06:36 | #1

[Цитировать]

Информация о фильме
Название: Плохие парни
Оригинальное название: The Bad Guys
Год выхода: 2022
Жанр: Мультфильм, комедия, криминал, приключения, семейный
Режиссер: Пьер Перифел
В ролях: Сэм Рокуэлл, Марк Мэрон, Аквафина, Крэйг Робинсон, Энтони Рамос, Ричард Айоади, Зази Битц, Алекс Борштейн, Лилли Сингх, Барбара Гудсон

О фильме: Мир еще не видел столь искусных авантюристов: ловкий карманник Мистер Волк, опытный взломщик сейфов Мистер Змей, хладнокровный мастер маскировки Мистер Акула, вспыльчивый и мускулистый Мистер Пиранья, а также остроумная хакер высшего класса Мисс Тарантула. Однако даже самые умные преступники иногда допускают ошибки. Чтобы спастись от неминуемый тюрьмы, главарь банды Мистер Волк вынужден идти на крайние меры: «Плохие парни» должны измениться в лучшую сторону. Или сделать вид? Но когда новый злодей угрожает городу, сможет ли Мистер Волк убедить остальных действительно стать… хорошими ребятами?
Страна: США
Студия: DreamWorks Animation, Universal Pictures
Продолжительность: 01:40:07
Перевод(ы):
#1: Дублированный | Пифагор
#2: Профессиональный многоголосый | Jaskier
#3: Профессиональный многоголосый | TVShows

Качество: BDRip 720p
Видео: MPEG-4 AVC, 1280x536, 9489 Kbit/s, 23.976 fps
Аудио #01: 48 kHz, AC3, 5.1, 384 Kbps | Дублированный | Пифагор | RUS |
Аудио #02: 48 kHz, AC3, 5.1, 448 Kbps | Профессиональный многоголосый | Jaskier | RUS |
Аудио #03: 48 kHz, AC3, 2.0, 192 Kbps | Профессиональный многоголосый | TVShows | RUS |
Аудио #04: 48 kHz, AC3, 5.1, 640 Kbps | Оригинал | ENG |
Субтитры: Русские (Forced (songs), full), английские

Скриншоты

MI

General
Unique ID : 253884019248915635376586336078883186779 (0xBF004893EEFEB45773AC614DA993E85B)
Complete name : E:Video1The.Bad.Guys.2022.BDRip.720p.seleZen.mkv
Format : Matroska
Format version : Version 4
File size : 7.80 GiB
Duration : 1 h 40 min
Overall bit rate : 11.2 Mb/s
Movie name : The Bad Guys 2022 from seleZen
Encoded date : UTC 2022-06-05 17:12:26
Writing application : mkvmerge v59.0.0 ('Shining Star') 64-bit
Writing library : libebml v1.4.2 + libmatroska v1.6.4
Video
ID : 1
Format : AVC
Format/Info : Advanced Video Codec
Format profile : [email protected]
Format settings : CABAC / 12 Ref Frames
Format settings, CABAC : Yes
Format settings, Reference : 12 frames
Codec ID : V_MPEG4/ISO/AVC
Duration : 1 h 40 min
Bit rate : 9 489 kb/s
Width : 1 280 pixels
Height : 536 pixels
Display aspect ratio : 2.40:1
Frame rate mode : Constant
Frame rate : 23.976 (24000/1001) FPS
Color space : YUV
Chroma subsampling : 4:2:0
Bit depth : 8 bits
Scan type : Progressive
Bits/(Pixel*Frame) : 0.577
Stream size : 6.64 GiB (85%)
Title : playHD
Writing library : x264 core 164 r3075+55M t_mod ~ Encoded by luvBB: JigSaw & droops16
Encoding settings : cabac=1 / ref=12 / deblock=1:-3:-3 / analyse=0x3:0x133 / me=umh / subme=10 / psy=1 / fade_compensate=0.00 / psy_rd=1.00:0.00 / mixed_ref=1 / me_range=32 / chroma_me=1 / trellis=2 / 8x8dct=1 / cqm=0 / deadzone=21,11 / fast_pskip=0 / chroma_qp_offset=-2 / threads=12 / lookahead_threads=2 / sliced_threads=0 / nr=0 / decimate=0 / interlaced=0 / bluray_compat=0 / constrained_intra=0 / fgo=0 / bframes=9 / b_pyramid=2 / b_adapt=2 / b_bias=0 / direct=3 / weightb=1 / open_gop=0 / weightp=2 / keyint=250 / keyint_min=23 / scenecut=40 / intra_refresh=0 / rc=crf / mbtree=0 / crf=16.5000 / qcomp=0.60 / qpmin=0:0:0 / qpmax=69:69:69 / qpstep=4 / ip_ratio=1.30 / pb_ratio=1.20 / aq=3:0.85 / aq-sensitivity=10.00 / aq-factor=1.00:1.00:1.00 / aq2=0 / aq3=0
Language : English
Default : Yes
Forced : No
Audio #1
ID : 2
Format : AC-3
Format/Info : Audio Coding 3
Commercial name : Dolby Digital
Codec ID : A_AC3
Duration : 1 h 40 min
Bit rate mode : Constant
Bit rate : 384 kb/s
Channel(s) : 6 channels
Channel layout : L R C LFE Ls Rs
Sampling rate : 48.0 kHz
Frame rate : 31.250 FPS (1536 SPF)
Compression mode : Lossy
Stream size : 275 MiB (3%)
Title : Dub
Language : Russian
Service kind : Complete Main
Default : Yes
Forced : Yes
Audio #2
ID : 3
Format : AC-3
Format/Info : Audio Coding 3
Commercial name : Dolby Digital
Codec ID : A_AC3
Duration : 1 h 40 min
Bit rate mode : Constant
Bit rate : 448 kb/s
Channel(s) : 6 channels
Channel layout : L R C LFE Ls Rs
Sampling rate : 48.0 kHz
Frame rate : 31.250 FPS (1536 SPF)
Compression mode : Lossy
Stream size : 321 MiB (4%)
Title : MVO [Jaskier]
Language : Russian
Service kind : Complete Main
Default : No
Forced : No
Audio #3
ID : 4
Format : AC-3
Format/Info : Audio Coding 3
Commercial name : Dolby Digital
Codec ID : A_AC3
Duration : 1 h 40 min
Bit rate mode : Constant
Bit rate : 192 kb/s
Channel(s) : 2 channels
Channel layout : L R
Sampling rate : 48.0 kHz
Frame rate : 31.250 FPS (1536 SPF)
Compression mode : Lossy
Stream size : 137 MiB (2%)
Title : MVO [TVShows]
Language : Russian
Service kind : Complete Main
Default : No
Forced : No
Audio #4
ID : 5
Format : AC-3
Format/Info : Audio Coding 3
Commercial name : Dolby Digital
Codec ID : A_AC3
Duration : 1 h 40 min
Bit rate mode : Constant
Bit rate : 640 kb/s
Channel(s) : 6 channels
Channel layout : L R C LFE Ls Rs
Sampling rate : 48.0 kHz
Frame rate : 31.250 FPS (1536 SPF)
Compression mode : Lossy
Stream size : 458 MiB (6%)
Title : Original
Language : English
Service kind : Complete Main
Default : No
Forced : No
Text #1
ID : 6
Format : UTF-8
Codec ID : S_TEXT/UTF8
Codec ID/Info : UTF-8 Plain Text
Duration : 1 h 28 min
Bit rate : 13 b/s
Count of elements : 151
Stream size : 8.64 KiB (0%)
Title : Forced [Songs]
Language : Russian
Default : Yes
Forced : Yes
Text #2
ID : 7
Format : UTF-8
Codec ID : S_TEXT/UTF8
Codec ID/Info : UTF-8 Plain Text
Duration : 1 h 34 min
Bit rate : 150 b/s
Count of elements : 1931
Stream size : 105 KiB (0%)
Title : Full
Language : Russian
Default : No
Forced : No
Text #3
ID : 8
Format : UTF-8
Codec ID : S_TEXT/UTF8
Codec ID/Info : UTF-8 Plain Text
Duration : 1 h 39 min
Bit rate : 76 b/s
Count of elements : 1990
Stream size : 55.6 KiB (0%)
Title : Full
Language : English
Default : No
Forced : No
Text #4
ID : 9
Format : UTF-8
Codec ID : S_TEXT/UTF8
Codec ID/Info : UTF-8 Plain Text
Duration : 1 h 39 min
Bit rate : 90 b/s
Count of elements : 2288
Stream size : 66.4 KiB (0%)
Title : SDH
Language : English
Default : No
Forced : No
Menu
00:00:00.000 : :Chapter 01
00:03:09.439 : :Chapter 02
00:09:08.965 : :Chapter 03
00:14:07.847 : :Chapter 04
00:20:35.484 : :Chapter 05
00:27:24.977 : :Chapter 06
00:32:08.927 : :Chapter 07
00:36:16.549 : :Chapter 08
00:41:26.776 : :Chapter 09
00:45:50.164 : :Chapter 10
00:49:08.821 : :Chapter 11
00:55:01.089 : :Chapter 12
00:58:38.890 : :Chapter 13
01:05:41.020 : :Chapter 14
01:10:36.232 : :Chapter 15
01:12:40.439 : :Chapter 16
01:15:45.166 : :Chapter 17
01:20:25.195 : :Chapter 18
01:25:28.832 : :Chapter 19
01:30:56.326 : :Chapter 20
[ivtracker.org].t34958.torrent 
 ЗОЛОТАЯ РАЗДАЧА! СКАЧАННОЕ НЕ ЗАСЧИТЫВАЕТСЯ! 
Торрент: Зарегистрирован [ 2022-06-06 06:36 ] · 47FF0B542DB0384321A1C3FEF3B2E5B0717DF3AE

Скачать .torrent

Скачать

157 KB

Статус: проверено · admin · 2 года 1 месяц назад
Скачан: 0 раз
Размер: 7.8 GB
Поделиться:
 
Похожие темы
[Профиль] [ЛС]
Вернуться к началу
Показать сообщения:    
Ответить на тему

Текущее время: 13-Июл 04:13

Часовой пояс: UTC + 3



Вы не можете начинать темы
Вы не можете отвечать на сообщения
Вы не можете редактировать свои сообщения
Вы не можете удалять свои сообщения
Вы не можете голосовать в опросах
Вы не можете прикреплять файлы к сообщениям
Вы можете скачивать файлы