Пламенное сердце / Vaillante / Fireheart (2022) BDRip 1080p от селезень | D

Ответить на тему
Статистика раздачи
Размер:  8.63 GB   |    Зарегистрирован:  2 года 1 месяц   |    Скачан:  0 раз

Полного источника не было: Никогда

 
   
 
 
Автор Сообщение

admin ®

Статус: Не в сети

Стаж: 6 лет 9 месяцев

Сообщений: 23696

Репутация: 0 [+] [-]

Откуда: Россия

Создавать темы 31-Май-2022 05:55 | #1

[Цитировать]

Информация о фильме
Название: Пламенное сердце
Оригинальное название: Vaillante / Fireheart
Год выхода: 2022
Жанр: Мультфильм, комедия, приключения, семейный
Режиссер: Теодор Ти, Лоран Зэйтун
В ролях: Оливия Кук, Кеннет Брана, Лори Холден, Уильям Шетнер, Мара Жюно, Уайлекс Ли, Райан В. Гарсиа, Алис Поль, Венсан Кассель, Валери Лемерсье, Клаудия Тагбо, Эли Семун, Эммануэль Кюртиль, Эммануэль Гариджо, Александр Н’Гуэн

О фильме: С самого детства у Джорджии Нолан была только одна мечта: стать пожарным, как ее папа! К сожалению, законы того времени не оставляли шанса этой мечте осуществиться. Но когда в городе стали один за другим пропадать пожарные, а таинственные пожары — сжигать дотла городские театры, Джорджиа поняла: вот она, ее возможность! Переодевшись в «Джо», неуклюжего парня с усиками, она присоединяется к команде пожарных-добровольцев, которым поручено остановить загадочного поджигателя. Джорджии придется здорово постараться, чтобы ее не раскрыли, особенно учитывая, что возглавляет рискованное расследование ее отец.
Страна: Франция, Канада
Студия: Entertainment One, L'Atelier Animation, Anton Capital Entertainment, Main Journey, Caramel Film
Продолжительность: 01:32:17
Перевод: Дублированный | IYUNO SDI Group
Качество: BDRip 1080p
Видео: MPEG-4 AVC, 1920x804, 12.3 Mbit/s, 24.000 fps
Аудио #01: 48 kHz, AC3, 5.1, 448 Kbps | Дублированный | IYUNO SDI Group | RUS |
Аудио #02: 48 kHz, AC3, 5.1, 640 Kbps | Оригинал | FRE |
Субтитры: Английские

Скриншоты

MI

General
Unique ID : 18611164404144124927128215674626921455 (0xE00613FFC310AA45D40CBB4B56253EF)
Complete name : E:Video1Vaillante.2022.BDRip.1080p.seleZen.mkv
Format : Matroska
Format version : Version 4
File size : 8.63 GiB
Duration : 1 h 32 min
Overall bit rate : 13.4 Mb/s
Movie name : Fireheart 2022 from seleZen
Encoded date : UTC 2022-05-30 10:15:43
Writing application : mkvmerge v59.0.0 ('Shining Star') 64-bit
Writing library : libebml v1.4.2 + libmatroska v1.6.4
Video
ID : 1
Format : AVC
Format/Info : Advanced Video Codec
Format profile : [email protected]
Format settings : CABAC / 5 Ref Frames
Format settings, CABAC : Yes
Format settings, Reference : 5 frames
Codec ID : V_MPEG4/ISO/AVC
Duration : 1 h 32 min
Bit rate : 12.3 Mb/s
Width : 1 920 pixels
Height : 804 pixels
Display aspect ratio : 2.40:1
Frame rate mode : Constant
Frame rate : 24.000 FPS
Color space : YUV
Chroma subsampling : 4:2:0
Bit depth : 8 bits
Scan type : Progressive
Bits/(Pixel*Frame) : 0.332
Stream size : 7.93 GiB (92%)
Writing library : x264 core 146 -from seleZen
Encoding settings : cabac=1 / ref=5 / deblock=1:-2:-2 / analyse=0x3:0x133 / me=umh / subme=10 / psy=1 / psy_rd=1.05:0.03 / mixed_ref=1 / me_range=48 / chroma_me=1 / trellis=2 / 8x8dct=1 / cqm=0 / deadzone=21,11 / fast_pskip=0 / chroma_qp_offset=-3 / threads=48 / lookahead_threads=6 / sliced_threads=0 / nr=0 / decimate=0 / interlaced=0 / bluray_compat=0 / constrained_intra=0 / bframes=9 / b_pyramid=2 / b_adapt=2 / b_bias=0 / direct=3 / weightb=1 / open_gop=0 / weightp=2 / keyint=240 / keyint_min=23 / scenecut=40 / intra_refresh=0 / rc_lookahead=50 / rc=2pass / mbtree=0 / bitrate=12300 / ratetol=1.0 / qcomp=0.60 / qpmin=0 / qpmax=51 / qpstep=4 / cplxblur=20.0 / qblur=0.5 / vbv_maxrate=50000 / vbv_bufsize=62500 / nal_hrd=none / filler=0 / ip_ratio=1.40 / pb_ratio=1.30 / aq=3:0.80
Language : English
Default : Yes
Forced : No
Audio #1
ID : 2
Format : AC-3
Format/Info : Audio Coding 3
Commercial name : Dolby Digital
Codec ID : A_AC3
Duration : 1 h 32 min
Bit rate mode : Constant
Bit rate : 448 kb/s
Channel(s) : 6 channels
Channel layout : L R C LFE Ls Rs
Sampling rate : 48.0 kHz
Frame rate : 31.250 FPS (1536 SPF)
Compression mode : Lossy
Stream size : 296 MiB (3%)
Title : Dub
Language : Russian
Service kind : Complete Main
Default : Yes
Forced : Yes
Audio #2
ID : 3
Format : AC-3
Format/Info : Audio Coding 3
Commercial name : Dolby Digital
Codec ID : A_AC3
Duration : 1 h 32 min
Bit rate mode : Constant
Bit rate : 640 kb/s
Channel(s) : 6 channels
Channel layout : L R C LFE Ls Rs
Sampling rate : 48.0 kHz
Frame rate : 31.250 FPS (1536 SPF)
Bit depth : 16 bits
Compression mode : Lossy
Stream size : 422 MiB (5%)
Title : Original
Language : French
Service kind : Complete Main
Default : No
Forced : No
Text #1
ID : 4
Format : UTF-8
Codec ID : S_TEXT/UTF8
Codec ID/Info : UTF-8 Plain Text
Duration : 1 h 26 min
Bit rate : 70 b/s
Count of elements : 1492
Stream size : 44.8 KiB (0%)
Title : Full
Language : English
Default : No
Forced : No
Text #2
ID : 5
Format : UTF-8
Codec ID : S_TEXT/UTF8
Codec ID/Info : UTF-8 Plain Text
Duration : 1 h 28 min
Bit rate : 80 b/s
Count of elements : 1782
Stream size : 51.6 KiB (0%)
Title : SDH
Language : English
Default : No
Forced : No
Menu
00:00:00.000 : fr:Chapter 01
00:07:17.791 : fr:Chapter 02
00:15:19.166 : fr:Chapter 03
00:22:57.041 : fr:Chapter 04
00:29:16.541 : fr:Chapter 05
00:36:29.500 : fr:Chapter 06
00:42:55.333 : fr:Chapter 07
00:51:36.500 : fr:Chapter 08
00:58:35.041 : fr:Chapter 09
01:05:06.750 : fr:Chapter 10
01:13:05.833 : fr:Chapter 11
01:19:56.333 : fr:Chapter 12
[ivtracker.org].t34767.torrent 
 ЗОЛОТАЯ РАЗДАЧА! СКАЧАННОЕ НЕ ЗАСЧИТЫВАЕТСЯ! 
Торрент: Зарегистрирован [ 2022-05-31 05:55 ] · 55B1238187E2FCCE864389F0B023CAD146E34905

Скачать .torrent

Скачать

174 KB

Статус: проверено · admin · 2 года 1 месяц назад
Скачан: 0 раз
Размер: 8.63 GB
Поделиться:
 
Похожие темы
[Профиль] [ЛС]
Вернуться к началу
Показать сообщения:    
Ответить на тему

Текущее время: 13-Июл 04:19

Часовой пояс: UTC + 3



Вы не можете начинать темы
Вы не можете отвечать на сообщения
Вы не можете редактировать свои сообщения
Вы не можете удалять свои сообщения
Вы не можете голосовать в опросах
Вы не можете прикреплять файлы к сообщениям
Вы можете скачивать файлы