Сквозь снег / Snowpiercer [03x10 из 10] (2022) WEB-DL 1080p | Пифагор

Reply to topic
DL-List and Torrent activity [Update пиров]
Size:  3.1 GB   |    Registered:  1 month 30 days   |    Completed:  0 times

Seeder not seen: Never

Leechers:  1  [  0 KB/s  ]   Show peers in full details
 
   
 
 
Author Message

admin ®

Gender: Male

Longevity: 4 years 8 months

Posts: 18177

Location: Россия

Post 30-Mar-2022 04:31

[Quote]

Название: Сквозь снег
Оригинальное название: Snowpiercer
Год выхода: 2022
Жанр: Фантастика, боевик, триллер, драма
Режиссер: Джеймс Хоуз, Сэм Миллер, Хелен Шейвер
В ролях: Дженнифер Коннелли, Давид Диггс, Мики Самнер, Шейла Ванд, Лена Холл, Элисон Райт, Иддо Голдберг, Аарон Гленнэйн, Карин Коновал, Анналиса Бассо, Майк О`Мэлли и др.
Описание сериала: Мир претерпел техногенную катастрофу, которая привела к новому ледниковому периоду. По трансевразийской магистрали мчится гигантский поезд, заполненный выжившими. В поезде царит строгая классовая иерархия: от правящей элиты в первых вагонах до угнетённых в хвосте.
Страна: США
Студия: CJ Entertainment, Studio T, Tomorrow Studios
Продолжительность: 00:48:12
Перевод: Дублированный Пифагор по заказу Netflix
Субтитры: Английские

Файл
Формат: MKV
Качество: WEB-DL (1080p)
Видео: 1920x1080 (16:9), 23, 976 fps, AVC (х264), High@L4, 8375 kbps avg, 0.168 bit/pixel
Аудио RUS: 48 kHz, AC3, 2/0 (L, R), ~192 kbps avg
Аудио ENG: 48 kHz, E-AC3, 3/2 (L, C, R, l, r) + LFE ch, ~640 kbps avg

MediaInfo

Общее
Уникальный идентификатор : 106835931068074352371871722855501132959 (0x505FDA14AE0AC873327307C224A7F49F)
Полное имя : Snowpiercer.S03E10.The.Original.Sinners.1080p.AMZN.WEB-DL.H.264-NOSiViD-SPARTA111.mkv
Формат : Matroska
Версия формата : Version 4
Размер файла : 3,10 Гбайт
Продолжительность : 48 м. 12 с.
Общий поток : 9 210 Кбит/сек
Название фильма : Snowpiercer - S03E10 - The Original Sinners
Дата кодирования : UTC 2022-03-29 10:31:44
Программа кодирования : mkvmerge v66.0.0 ('Josie') 64-bit
Библиотека кодирования : libebml v1.4.2 + libmatroska v1.6.4
IMDB : tt6156584
TMDB : tv/79680
TVDB : 364928
Видео
Идентификатор : 1
Формат : AVC
Формат/Информация : Advanced Video Codec
Профиль формата : High@L4
Настройки формата : CABAC / 4 Ref Frames
Параметр CABAC формата : Да
Параметр RefFrames формата : 4 кадра
Идентификатор кодека : V_MPEG4/ISO/AVC
Продолжительность : 48 м. 12 с.
Вид битрейта : Постоянный
Битрейт : 8 375 Кбит/сек
Номинальный битрейт : 10 000 Кбит/сек
Ширина : 1 920 пикселей
Высота : 1 080 пикселей
Соотношение сторон : 16:9
Режим частоты кадров : Постоянный
Частота кадров : 23,976 (24000/1001) кадра/сек
Цветовое пространство : YUV
Субдискретизация насыщенности : 4:2:0
Битовая глубина : 8 бит
Тип развёртки : Прогрессивная
Бит/(Пиксели*Кадры) : 0.168
Размер потока : 2,82 Гбайт (91%)
Default : Да
Forced : Нет
Цветовой диапазон : Limited
Основные цвета : BT.709
Характеристики трансфера : BT.709
Коэффициенты матрицы : BT.709
Аудио #1
Идентификатор : 2
Формат : AC-3
Формат/Информация : Audio Coding 3
Коммерческое название : Dolby Digital
Идентификатор кодека : A_AC3
Продолжительность : 48 м. 12 с.
Вид битрейта : Постоянный
Битрейт : 192 Кбит/сек
Каналы : 2 канала
Channel layout : L R
Частота : 48,0 КГц
Частота кадров : 31,250 кадров/сек (1536 SPF)
Метод сжатия : С потерями
Размер потока : 66,2 Мбайт (2%)
Язык : Russian
Default : Да
Forced : Нет
Аудио #2
Идентификатор : 3
Формат : E-AC-3
Формат/Информация : Enhanced AC-3
Коммерческое название : Dolby Digital Plus
Идентификатор кодека : A_EAC3
Продолжительность : 48 м. 12 с.
Вид битрейта : Постоянный
Битрейт : 640 Кбит/сек
Каналы : 6 каналов
Channel layout : L R C LFE Ls Rs
Частота : 48,0 КГц
Частота кадров : 31,250 кадров/сек (1536 SPF)
Метод сжатия : С потерями
Размер потока : 221 Мбайт (7%)
Язык : English
Default : Нет
Forced : Нет
Текст #1
Идентификатор : 4
Формат : UTF-8
Идентификатор кодека : S_TEXT/UTF8
Идентификатор кодека/Информация : UTF-8 Plain Text
Продолжительность : 46 м. 31 с.
Битрейт : 58 бит/сек
Count of elements : 680
Размер потока : 19,8 Кбайт (0%)
Язык : English
Default : Нет
Forced : Нет
Текст #2
Идентификатор : 5
Формат : UTF-8
Идентификатор кодека : S_TEXT/UTF8
Идентификатор кодека/Информация : UTF-8 Plain Text
Продолжительность : 47 м. 50 с.
Битрейт : 64 бит/сек
Count of elements : 825
Размер потока : 22,6 Кбайт (0%)
Заголовок : SDH
Язык : English
Default : Нет
Forced : Нет
Меню
00:03:06.000 : en:Intro
00:47:39.000 : en:Credits

Скриншоты

 GOLD TORRENT! DOWNLOAD TRAFFIC DOES NOT CONSIDER! 
Torrent: Registered [ 2022-03-30 04:31 ]   · 068432A96EDBA10C5803B34F2DC5901D3E58E303

Download .torrent

Download

17 KB

Status: checked
Completed: 0 times
Size: 3.1 GB
Поделиться:
terms.php
[Profile] [PM]
Display posts:    
Reply to topic

Current time is: 29-May 05:26

All times are UTC + 3



You cannot post new topics in this forum
You cannot reply to topics in this forum
You cannot edit your posts in this forum
You cannot delete your posts in this forum
You cannot vote in polls in this forum
You cannot attach files in this forum
You can download files in this forum