Добро пожаловать на Землю / Welcome to Earth [S01] (2021) WEB-DL 1080p | HDrezka Studio

Reply to topic
DL-List and Torrent activity [Update пиров]
Size:  13.18 GB   |    Registered:  1 month 30 days   |    Completed:  0 times

Seeder not seen: Never

Leechers:  1  [  0 KB/s  ]   Show peers in full details
 
   
 
 
Author Message

admin ®

Gender: Male

Longevity: 4 years 8 months

Posts: 18168

Location: Россия

Post 29-Mar-2022 05:57

[Quote]

Информация о фильме
Название: Добро пожаловать на Землю
Оригинальное название: Welcome to Earth
Год выхода: 2021
Жанр: документальный, приключения
Режиссер: Род Блэкхёрст, Даррен Аронофски
В ролях: Махмуд Фарг, Уилл Смит
О фильме: В новом тревел-шоу Уилл Смит изучает нашу планету, оказываясь в экстремальных ситуациях: сплавляясь по реке, находясь на месте извержения вулканов, покоряя горные вершины и погружаясь в океан...

Страна: США
Студия: National Geographic, Nutopia, Westbrook Studios
Продолжительность: ~00:44:00 серия
Перевод: Профессиональный (многоголосый, закадровый) HDrezka Studio
Файл
Качество: WEB-DL 1080p | Welcome.to.Earth.S01.1080p.DSNP.WEB-DL.DDP5.1.x264-KOGi
Формат: Matroska
Видео: 1920x1080 at 23.976 fps, MPEG-4 AVC, ~7200-7900 kbps avg
Аудио#1: Russian: 48 kHz, AC3, 3/2 (L,C,R,l,r) + LFE ch, ~448 kbps avg |Многоголосый закадровый, HDrezka Studio|
Аудио#2: English: 48 kHz, E-AC3, 3/2 (L,C,R,l,r) + LFE ch, ~256 kbps avg
Субтитры: Russian (Forced), English (SDH)
***Примечание: Без рекламы
***За звук спасибо: leon899xxx

Скриншоты


MediaInfo

Общее
Уникальный идентификатор : 246560224029524108209659482833446524966 (0xB97DC5984F917C3D2C8D95CDFF305826)
Полное имя : Welcome.to.Earth.S01E01.mkv
Формат : Matroska
Версия формата : Version 4
Размер файла : 2,47 Гбайт
Продолжительность : 43 м. 16 с.
Режим общего битрейта : Переменный
Общий поток : 8 179 Кбит/сек
Название фильма : Welcome to Earth S01E01 | mrrvg@rutor
Дата кодирования : UTC 2021-12-13 12:15:50
Программа кодирования : mkvmerge v63.0.0 ('Everything') 64-bit
Библиотека кодирования : libebml v1.4.2 + libmatroska v1.6.4
Видео
Идентификатор : 1
Формат : AVC
Формат/Информация : Advanced Video Codec
Профиль формата : High@L4
Настройки формата : CABAC / 4 Ref Frames
Параметр CABAC формата : Да
Параметр RefFrames формата : 4 кадра
Идентификатор кодека : V_MPEG4/ISO/AVC
Продолжительность : 43 м. 16 с.
Вид битрейта : Переменный
Битрейт : 7 472 Кбит/сек
Максимальный битрейт : 12,7 Мбит/сек
Ширина : 1 920 пикселей
Высота : 1 080 пикселей
Соотношение сторон : 16:9
Режим частоты кадров : Постоянный
Частота кадров : 23,976 (24000/1001) кадра/сек
Цветовое пространство : YUV
Субдискретизация насыщенности : 4:2:0
Битовая глубина : 8 бит
Тип развёртки : Прогрессивная
Бит/(Пиксели*Кадры) : 0.150
Размер потока : 2,26 Гбайт (91%)
Язык : English
Default : Да
Forced : Нет
Цветовой диапазон : Limited
Основные цвета : BT.709
Характеристики трансфера : BT.709
Коэффициенты матрицы : BT.709
Аудио #1
Идентификатор : 2
Формат : AC-3
Формат/Информация : Audio Coding 3
Коммерческое название : Dolby Digital
Идентификатор кодека : A_AC3
Продолжительность : 43 м. 16 с.
Вид битрейта : Постоянный
Битрейт : 448 Кбит/сек
Каналы : 6 каналов
Channel layout : L R C LFE Ls Rs
Частота : 48,0 КГц
Частота кадров : 31,250 кадров/сек (1536 SPF)
Метод сжатия : С потерями
Размер потока : 139 Мбайт (5%)
Язык : Russian
Service kind : Complete Main
Default : Да
Forced : Нет
Аудио #2
Идентификатор : 3
Формат : E-AC-3
Формат/Информация : Enhanced AC-3
Коммерческое название : Dolby Digital Plus
Идентификатор кодека : A_EAC3
Продолжительность : 43 м. 16 с.
Вид битрейта : Постоянный
Битрейт : 256 Кбит/сек
Каналы : 6 каналов
Channel layout : L R C LFE Ls Rs
Частота : 48,0 КГц
Частота кадров : 31,250 кадров/сек (1536 SPF)
Метод сжатия : С потерями
Размер потока : 79,3 Мбайт (3%)
Язык : English
Service kind : Complete Main
Default : Нет
Forced : Нет
Текст #1
Идентификатор : 4
Формат : UTF-8
Идентификатор кодека : S_TEXT/UTF8
Идентификатор кодека/Информация : UTF-8 Plain Text
Продолжительность : 37 м. 56 с.
Битрейт : 5 бит/сек
Count of elements : 28
Размер потока : 1,41 Кбайт (0%)
Заголовок : Forced
Язык : Russian
Default : Да
Forced : Нет
Текст #2
Идентификатор : 5
Формат : UTF-8
Идентификатор кодека : S_TEXT/UTF8
Идентификатор кодека/Информация : UTF-8 Plain Text
Продолжительность : 42 м. 34 с.
Битрейт : 70 бит/сек
Count of elements : 528
Размер потока : 21,9 Кбайт (0%)
Заголовок : SDH
Язык : English
Default : Нет
Forced : Нет

Раздача ведется путем добавления новых серий

Когда раздача ведётся путём добавления новых серий, при каждом добавлении создётся новый торрент. Чтобы начать докачку новой серии, пользователям необходимо сделать следующее:
(1) остановить скачивание,
(2) удалить старый торрент у себя из клиента (старые серии удалять не надо),
(3) скачать новый торрент и запустить его у себя в клиенте вместо старого, при этом указать клиенту путь в старую папку, куда и должно происходить скачивание новых серий.
Ваш клиент при этом должен произвести хеширование (проверку) старой папки (если не производит сам - помогите ему сделать это), и будет докачивать только те серии, которых у вас ещё нет. Старые серии при этом не удаляются, а продолжают раздаваться!
Eсли вы уже удалили старые серии, то предотвратить повторную закачку старых серий можно, отжав галочку в соответсвующих местах при запуске нового торрента. По возможности, желательно не удалять старые серии как можно дольше, чтобы релизер не столько продолжал раздавать старые серии, а смог сконцентрироваться на новых.
 GOLD TORRENT! DOWNLOAD TRAFFIC DOES NOT CONSIDER! 
Torrent: Registered [ 2022-03-29 05:57 ]   · B1F5FE2D0B4E6C5B1739C1775A134CD9208F748F

Download .torrent

Download

67 KB

Status: checked
Completed: 0 times
Size: 13.18 GB
Поделиться:
terms.php
[Profile] [PM]
Display posts:    
Reply to topic

Current time is: 29-May 04:56

All times are UTC + 3



You cannot post new topics in this forum
You cannot reply to topics in this forum
You cannot edit your posts in this forum
You cannot delete your posts in this forum
You cannot vote in polls in this forum
You cannot attach files in this forum
You can download files in this forum