Ледниковый период: Приключения Бака / The Ice Age Adventures of Buck Wild (2022) WEB-DL 720p от ExKinoRay | P, L2

Ответить на тему
Статистика раздачи
Размер:  3.03 GB   |    Зарегистрирован:  2 года 5 месяцев   |    Скачан:  0 раз

Полного источника не было: Никогда

 
   
 
 
Автор Сообщение

admin ®

Статус: Не в сети

Стаж: 6 лет 9 месяцев

Сообщений: 23696

Репутация: 0 [+] [-]

Откуда: Россия

Создавать темы 02-Фев-2022 06:50 | #1

[Цитировать]

Информация о фильме
Название: Ледниковый период: Приключения Бака
Оригинальное название: The Ice Age Adventures of Buck Wild
Год выхода: 2022
Жанр: Мультфильм, комедия, приключения, семейный
Режиссер: Джон С. Донкин
В ролях: Уткарш Амбудкар, Шон Кенин, Джейк Грин, Аарон Харрис, Доминик Дженнингс, Джастина Мачадо, Саймон Пегг, Скайлер Стоун, Винсент Тонг
О фильме:
Бесстрашный одноглазый хорек Бак объединяется с озорными братьями-опоссумами Крэшем и Эдди, когда они отправляются в новое приключение в мир динозавров.

Страна: США
Студия: 20th Century Studios, Bardel Entertainmen, tBlue Sky Studios
Продолжительность: 01:21:05
Перевод: Профессиональный многоголосый, любительский двухголосый
Файл
Формат: MKV
Качество: WEB-DL 720p
Видео: MPEG-4 AVC, 3688 Кбит/с, 1280x720
Аудио 1: Русский (AC3, 6 ch, 448 Кбит/с) MVO | HDRezka Studio
Аудио 2: Русский (AC3, 6 ch, 448 Кбит/с) DVO | Pazl Voice
Аудио 3: Aнглийский (E-AC3 JOC, 6 ch, 768 Кбит/с) Original
Субтитры: Русские (full (MENINSUB)), английские, испанские, французские, португальские
Семпл

M/I

Общее
Уникальный идентификатор : 217589949613534043575030402573527270136 (0xA3B24CC9E7F1847EA4175A32BFD5C2F8)
Полное имя : D:РаздачаLednikovuyi.Period.2022.WEB-DL 720p.ExKinoRay.mkv
Формат : Matroska
Версия формата : Version 4 / Version 2
Размер файла : 3,03 Гбайт
Продолжительность : 1 ч. 21 м.
Режим общего битрейта : Переменный
Общий поток : 5356 Кбит/сек
Название фильма : The Ice Age Adventures of Buck Wild.2022.WEB-DL 720p.grab777 & ExKinoRay
Дата кодирования : UTC 2022-02-01 19:01:45
Программа кодирования : mkvmerge v7.3.0 ('Nouages') 64bit built on Oct 22 2014 18:53:34
Библиотека кодирования : libebml v1.3.0 + libmatroska v1.4.1
Видео
Идентификатор : 1
Формат : AVC
Формат/Информация : Advanced Video Codec
Профиль формата : [email protected]
Настройки формата : CABAC / 4 Ref Frames
Параметр CABAC формата : Да
Параметр RefFrames формата : 4 кадра
Идентификатор кодека : V_MPEG4/ISO/AVC
Продолжительность : 1 ч. 21 м.
Вид битрейта : Переменный
Битрейт : 3688 Кбит/сек
Максимальный битрейт : 6375 Кбит/сек
Ширина : 1280 пикселей
Высота : 720 пикселей
Соотношение сторон : 16:9
Режим частоты кадров : Постоянный
Частота кадров : 23,976 (24000/1001) кадра/сек
Цветовое пространство : YUV
Субдискретизация насыщенности : 4:2:0
Битовая глубина : 8 бит
Тип развёртки : Прогрессивная
Бит/(Пиксели*Кадры) : 0.167
Размер потока : 2,09 Гбайт (69%)
Язык : English
Default : Да
Forced : Нет
Цветовой диапазон : Limited
Основные цвета : BT.709
Характеристики трансфера : BT.709
Коэффициенты матрицы : BT.709
Аудио #1
Идентификатор : 2
Формат : AC-3
Формат/Информация : Audio Coding 3
Параметр Endianness формата : Big
Идентификатор кодека : A_AC3
Продолжительность : 1 ч. 21 м.
Вид битрейта : Постоянный
Битрейт : 448 Кбит/сек
Каналы : 6 каналов
Расположение каналов : Front: L C R, Side: L R, LFE
Частота : 48,0 КГц
Частота кадров : 31,250 кадров/сек (1536 SPF)
Битовая глубина : 16 бит
Метод сжатия : С потерями
Размер потока : 260 Мбайт (8%)
Заголовок : MVO (HDRezka Studio)
Язык : Russian
Default : Да
Forced : Нет
Аудио #2
Идентификатор : 3
Формат : AC-3
Формат/Информация : Audio Coding 3
Параметр Endianness формата : Big
Идентификатор кодека : A_AC3
Продолжительность : 1 ч. 21 м.
Вид битрейта : Постоянный
Битрейт : 448 Кбит/сек
Каналы : 6 каналов
Расположение каналов : Front: L C R, Side: L R, LFE
Частота : 48,0 КГц
Частота кадров : 31,250 кадров/сек (1536 SPF)
Битовая глубина : 16 бит
Метод сжатия : С потерями
Размер потока : 260 Мбайт (8%)
Заголовок : DVO (Pazl Voice)
Язык : Russian
Default : Нет
Forced : Нет
Аудио #3
Идентификатор : 4
Формат : E-AC-3
Формат/Информация : Enhanced Audio Coding 3
Профиль формата : E-AC-3+Atmos / E-AC-3
Параметр Endianness формата : Big
Идентификатор кодека : A_EAC3
Продолжительность : 1 ч. 21 м.
Вид битрейта : Постоянный
Битрейт : 768 Кбит/сек
Каналы : 15 objects / 6 каналов
Расположение каналов : 15 objects / Front: L C R, Side: L R, LFE
Частота : 48,0 КГц
Частота кадров : 187,500 кадров/сек (256 SPF)
Метод сжатия : С потерями
Размер потока : 445 Мбайт (14%)
Заголовок : Original
Язык : English
Default : Нет
Forced : Нет
Текст #1
Идентификатор : 5
Формат : UTF-8
Идентификатор кодека : S_TEXT/UTF8
Идентификатор кодека/Информация : UTF-8 Plain Text
Продолжительность : 1 ч. 17 м.
Битрейт : 95 бит/сек
ElementCount : 1023
Размер потока : 53,9 Кбайт (0%)
Заголовок : full (MENINSUB)
Язык : Russian
Default : Нет
Forced : Нет
Текст #2
Идентификатор : 6
Формат : UTF-8
Идентификатор кодека : S_TEXT/UTF8
Идентификатор кодека/Информация : UTF-8 Plain Text
Продолжительность : 1 ч. 17 м.
Битрейт : 74 бит/сек
ElementCount : 1365
Размер потока : 42,1 Кбайт (0%)
Язык : English
Default : Нет
Forced : Нет
Текст #3
Идентификатор : 7
Формат : UTF-8
Идентификатор кодека : S_TEXT/UTF8
Идентификатор кодека/Информация : UTF-8 Plain Text
Продолжительность : 1 ч. 20 м.
Битрейт : 50 бит/сек
ElementCount : 919
Размер потока : 29,7 Кбайт (0%)
Заголовок : Español
Язык : Spanish
Default : Нет
Forced : Нет
Текст #4
Идентификатор : 8
Формат : UTF-8
Идентификатор кодека : S_TEXT/UTF8
Идентификатор кодека/Информация : UTF-8 Plain Text
Продолжительность : 1 ч. 20 м.
Битрейт : 48 бит/сек
ElementCount : 900
Размер потока : 28,6 Кбайт (0%)
Заголовок : Español (Latinoamericano)
Язык : Spanish
Default : Нет
Forced : Нет
Текст #5
Идентификатор : 9
Формат : UTF-8
Идентификатор кодека : S_TEXT/UTF8
Идентификатор кодека/Информация : UTF-8 Plain Text
Продолжительность : 1 ч. 20 м.
Битрейт : 56 бит/сек
ElementCount : 956
Размер потока : 33,0 Кбайт (0%)
Заголовок : Français
Язык : French
Default : Нет
Forced : Нет
Текст #6
Идентификатор : 10
Формат : UTF-8
Идентификатор кодека : S_TEXT/UTF8
Идентификатор кодека/Информация : UTF-8 Plain Text
Продолжительность : 1 ч. 20 м.
Битрейт : 51 бит/сек
ElementCount : 979
Размер потока : 30,4 Кбайт (0%)
Заголовок : Português
Язык : Portuguese
Default : Нет
Forced : Нет
Текст #7
Идентификатор : 11
Формат : UTF-8
Идентификатор кодека : S_TEXT/UTF8
Идентификатор кодека/Информация : UTF-8 Plain Text
Продолжительность : 1 ч. 20 м.
Битрейт : 48 бит/сек
ElementCount : 882
Размер потока : 28,7 Кбайт (0%)
Заголовок : Português (Brasil)
Язык : Portuguese
Default : Нет
Forced : Нет

Скриншоты

[ivtracker.org].t31548.torrent 
 ЗОЛОТАЯ РАЗДАЧА! СКАЧАННОЕ НЕ ЗАСЧИТЫВАЕТСЯ! 
Торрент: Зарегистрирован [ 2022-02-02 06:50 ] · 14030CEA07B92DDB51491583010FC42DD6E975B5

Скачать .torrent

Скачать

17 KB

Статус: проверено · admin · 2 года 5 месяцев назад
Скачан: 0 раз
Размер: 3.03 GB
Поделиться:
 
Похожие темы
[Профиль] [ЛС]
Вернуться к началу
Показать сообщения:    
Ответить на тему

Текущее время: 13-Июл 02:58

Часовой пояс: UTC + 3



Вы не можете начинать темы
Вы не можете отвечать на сообщения
Вы не можете редактировать свои сообщения
Вы не можете удалять свои сообщения
Вы не можете голосовать в опросах
Вы не можете прикреплять файлы к сообщениям
Вы можете скачивать файлы