Ледниковый период: Приключения Бака / The Ice Age Adventures of Buck Wild (2022) WEB-DL 1080p от New-Team | P, L2

Ответить на тему
Статистика раздачи
Размер:  5.1 GB   |    Зарегистрирован:  2 года 5 месяцев   |    Скачан:  0 раз

Полного источника не было: Никогда

 
   
 
 
Автор Сообщение

admin ®

Статус: Не в сети

Стаж: 6 лет 9 месяцев

Сообщений: 23696

Репутация: 0 [+] [-]

Откуда: Россия

Создавать темы 02-Фев-2022 06:47 | #1

[Цитировать]

Ледниковый период: Приключения Бака / The Ice Age Adventures of Buck Wild
Год выпуска: 2022
Выпущено: США
Жанр: Комедия, Фэнтези, Семейный, Приключения, Мультфильм
Режиссер: Джон С. Донкин / John C. Donkin
В ролях: Уткарш Амбудкар, Шон Кенин, Джейк Грин, Аарон Харрис, Доминик Дженнингс, Джастина Мачадо, Саймон Пегг, Скайлер Стоун, Винсент Тонг, Теодор Бордерс, Джейсон Харрис, Кристин МакГуайр, Шакира Джанай Пайе, Питер Памела Роуз, Джейсон Линере-Уайт
О фильме: Бесстрашный одноглазый хорек Бак объединяется с озорными братьями-опоссумами Крэшем и Эдди, когда они отправляются в новое приключение в мир динозавров.

Продолжительность: 01:21:05
Перевод: Профессиональный, многоголосый (HDRezka Studio), Любительский, двухголосый (Pazl Voice / KinoPub)
Субтитры: Русские (full (MENINSUB)), английские
Фрмат: MKV
Качество: WEB-DL 1080p
Видео: MPEG-4 AVC, 7342 Кбит/с, 1920x1080
Аудио #1: AC3, 6 ch, 448 Кбит/с | HDRezka Studio
Аудио #2: AC3, 6 ch, 448 Кбит/с | Pazl Voice
Аудио #3: E-AC3 JOC, 6 ch, 768 Кбит/с | ENG |

Скриншоты

-

MediaInfo

Общее
Уникальный идентификатор : 320859739263355902515829787150817271633 (0xF1635685D40B7AED2D05D779EC919F51)
Полное имя : E:TorrentsThe.Ice.Age.2022.WEB-DL.1080p_от New-Team.mkv
Формат : Matroska
Версия формата : Version 4
Размер файла : 5,10 Гбайт
Продолжительность : 1 ч. 21 м.
Режим общего битрейта : Переменный
Общий поток : 9 008 Кбит/сек
Название фильма : The.Ice.Age.2022.WEB-DL.1080p_от New-Team
Дата кодирования : UTC 2022-02-01 17:42:04
Программа кодирования : mkvmerge v59.0.0 ('Shining Star') 64-bit
Библиотека кодирования : libebml v1.4.2 + libmatroska v1.6.4
Видео
Идентификатор : 1
Формат : AVC
Формат/Информация : Advanced Video Codec
Профиль формата : High@L4
Настройки формата : CABAC / 4 Ref Frames
Параметр CABAC формата : Да
Параметр RefFrames формата : 4 кадра
Идентификатор кодека : V_MPEG4/ISO/AVC
Продолжительность : 1 ч. 21 м.
Вид битрейта : Переменный
Битрейт : 7 342 Кбит/сек
Максимальный битрейт : 12,7 Мбит/сек
Ширина : 1 920 пикселей
Высота : 1 080 пикселей
Соотношение сторон : 16:9
Режим частоты кадров : Постоянный
Частота кадров : 23,976 (24000/1001) кадра/сек
Цветовое пространство : YUV
Субдискретизация насыщенности : 4:2:0
Битовая глубина : 8 бит
Тип развёртки : Прогрессивная
Бит/(Пиксели*Кадры) : 0.148
Размер потока : 4,16 Гбайт (81%)
Default : Да
Forced : Нет
Цветовой диапазон : Limited
Основные цвета : BT.709
Характеристики трансфера : BT.709
Коэффициенты матрицы : BT.709
Аудио #1
Идентификатор : 2
Формат : AC-3
Формат/Информация : Audio Coding 3
Коммерческое название : Dolby Digital
Идентификатор кодека : A_AC3
Продолжительность : 1 ч. 21 м.
Вид битрейта : Постоянный
Битрейт : 448 Кбит/сек
Каналы : 6 каналов
Channel layout : L R C LFE Ls Rs
Частота : 48,0 КГц
Частота кадров : 31,250 кадров/сек (1536 SPF)
Метод сжатия : С потерями
Размер потока : 260 Мбайт (5%)
Заголовок : [MVO] HDRezka Studio
Язык : Russian
Service kind : Complete Main
Default : Да
Forced : Нет
Аудио #2
Идентификатор : 3
Формат : AC-3
Формат/Информация : Audio Coding 3
Коммерческое название : Dolby Digital
Идентификатор кодека : A_AC3
Продолжительность : 1 ч. 21 м.
Вид битрейта : Постоянный
Битрейт : 448 Кбит/сек
Каналы : 6 каналов
Channel layout : L R C LFE Ls Rs
Частота : 48,0 КГц
Частота кадров : 31,250 кадров/сек (1536 SPF)
Метод сжатия : С потерями
Размер потока : 260 Мбайт (5%)
Заголовок : [DVO] Pazl Voice
Язык : Russian
Service kind : Complete Main
Default : Нет
Forced : Нет
Аудио #3
Идентификатор : 4
Формат : E-AC-3 JOC
Формат/Информация : Enhanced AC-3 with Joint Object Coding
Коммерческое название : Dolby Digital Plus with Dolby Atmos
Идентификатор кодека : A_EAC3
Продолжительность : 1 ч. 21 м.
Вид битрейта : Постоянный
Битрейт : 768 Кбит/сек
Каналы : 6 каналов
Channel layout : L R C LFE Ls Rs
Частота : 48,0 КГц
Частота кадров : 31,250 кадров/сек (1536 SPF)
Метод сжатия : С потерями
Размер потока : 445 Мбайт (9%)
Язык : English
Service kind : Complete Main
Default : Нет
Forced : Нет
Complexity index : 16
Number of dynamic objects : 15
Bed channel count : 1 канал
Bed channel configuration : LFE
Текст #1
Идентификатор : 5
Формат : UTF-8
Идентификатор кодека : S_TEXT/UTF8
Идентификатор кодека/Информация : UTF-8 Plain Text
Продолжительность : 1 ч. 17 м.
Битрейт : 95 бит/сек
Count of elements : 1023
Размер потока : 53,9 Кбайт (0%)
Заголовок : full [MENINSUB]
Язык : Russian
Default : Нет
Forced : Нет
Текст #2
Идентификатор : 6
Формат : UTF-8
Идентификатор кодека : S_TEXT/UTF8
Идентификатор кодека/Информация : UTF-8 Plain Text
Продолжительность : 1 ч. 17 м.
Битрейт : 63 бит/сек
Count of elements : 1065
Размер потока : 36,0 Кбайт (0%)
Язык : English
Default : Нет
Forced : Нет
Меню
01:17:55.634 : Credits
[ivtracker.org].t31547.torrent 
 ЗОЛОТАЯ РАЗДАЧА! СКАЧАННОЕ НЕ ЗАСЧИТЫВАЕТСЯ! 
Торрент: Зарегистрирован [ 2022-02-02 06:47 ] · F7E6FA29A7DE0A5B652F959DBC3888B68F4799D4

Скачать .torrent

Скачать

14 KB

Статус: проверено · admin · 2 года 5 месяцев назад
Скачан: 0 раз
Размер: 5.1 GB
Поделиться:
 
Похожие темы
[Профиль] [ЛС]
Вернуться к началу
Показать сообщения:    
Ответить на тему

Текущее время: 13-Июл 03:38

Часовой пояс: UTC + 3



Вы не можете начинать темы
Вы не можете отвечать на сообщения
Вы не можете редактировать свои сообщения
Вы не можете удалять свои сообщения
Вы не можете голосовать в опросах
Вы не можете прикреплять файлы к сообщениям
Вы можете скачивать файлы