Стражи терракоты / Realm of Terracotta (2021) WEBRip 1080p от New-Team | Jaskier

Ответить на тему
Статистика раздачи
Размер:  4.22 GB   |    Зарегистрирован:  2 года 5 месяцев   |    Скачан:  0 раз

Полного источника не было: Никогда

 
   
 
 
Автор Сообщение

admin ®

Статус: Не в сети

Стаж: 6 лет 9 месяцев

Сообщений: 23696

Репутация: 0 [+] [-]

Откуда: Россия

Создавать темы 30-Янв-2022 06:07 | #1

[Цитировать]

Стражи терракоты / Realm of Terracotta
Год выпуска: 2021
Выпущено: Китай / Fantawild Animation
Жанр: Боевик, Фэнтези, Приключения, Мультфильм
Режиссер: Дин Лян / Ding Liang, Линь Юнчан / Yongchang Lin
В ролях: Цзыю Чжоу, Сяо Тан, Чжу Гуанцзу, Минг Чжан, Пэй Лю, Дин Лян, Лю Бэй
О фильме: Стражи волшебной Терракоты и магические существа Ониксы на протяжении многих столетий ведут войны друг с другом в подземном царстве. Молодой человек Магнус мечтает стать терракотовым воином, а для этого ему необходимо поймать одного из Ониксов. Магнус отправляется на поиски таинственного создания и встречает молодую девушку Джейд, которая также ищет Оникса. Герои влюбляются и объединяются, чтобы узнать настоящую причину вторжения монстров…

Продолжительность: 01:51:04
Перевод: профессиональный, многоголосый закадровый (Jaskier / KinoPub)
Субтитры: китайские (hardsub)
Фрмат: MKV
Качество: WEBRip 1080p
Видео: MPEG-4 AVC, 5123 Кбит/с, 1920x804
Аудио #1: AC3, 2 ch, 192 Кбит/с | RUS |
Аудио #2: AAC, 2 ch, 124 Кбит/с | CHI |

Скриншоты

-

MediaInfo

Общее
Уникальный идентификатор : 294994172048276204658699694321757879764 (0xDDEDCF998D025878223AE1ED06447DD4)
Полное имя : E:TorrentsRealm.of.Terracotta.2021.1080p.WEBRip_от New-Team.mkv
Формат : Matroska
Версия формата : Version 4
Размер файла : 4,22 Гбайт
Продолжительность : 1 ч. 51 м.
Общий поток : 5 441 Кбит/сек
Название фильма : Realm.of.Terracotta.2021.1080p.WEBRip_от New-Team
Дата кодирования : UTC 2022-01-29 09:12:25
Программа кодирования : mkvmerge v59.0.0 ('Shining Star') 64-bit
Библиотека кодирования : libebml v1.4.2 + libmatroska v1.6.4
Видео
Идентификатор : 1
Формат : AVC
Формат/Информация : Advanced Video Codec
Профиль формата : [email protected]
Настройки формата : CABAC / 2 Ref Frames
Параметр CABAC формата : Да
Параметр RefFrames формата : 2 кадра
Идентификатор кодека : V_MPEG4/ISO/AVC
Продолжительность : 1 ч. 51 м.
Битрейт : 5 123 Кбит/сек
Ширина : 1 920 пикселей
Высота : 804 пикселя
Соотношение сторон : 2,40:1
Режим частоты кадров : Постоянный
Частота кадров : 25,000 кадров/сек
Цветовое пространство : YUV
Субдискретизация насыщенности : 4:2:0
Битовая глубина : 8 бит
Тип развёртки : Прогрессивная
Бит/(Пиксели*Кадры) : 0.133
Размер потока : 3,97 Гбайт (94%)
Default : Да
Forced : Нет
Аудио #1
Идентификатор : 2
Формат : AC-3
Формат/Информация : Audio Coding 3
Коммерческое название : Dolby Digital
Идентификатор кодека : A_AC3
Продолжительность : 1 ч. 51 м.
Вид битрейта : Постоянный
Битрейт : 192 Кбит/сек
Каналы : 2 канала
Channel layout : L R
Частота : 48,0 КГц
Частота кадров : 31,250 кадров/сек (1536 SPF)
Метод сжатия : С потерями
Задержка видео : -46 мс.
Размер потока : 153 Мбайт (4%)
Заголовок : [MVO] Jaskier
Язык : Russian
Service kind : Complete Main
Default : Да
Forced : Нет
Аудио #2
Идентификатор : 3
Формат : AAC LC
Формат/Информация : Advanced Audio Codec Low Complexity
Идентификатор кодека : A_AAC-2
Продолжительность : 1 ч. 51 м.
Битрейт : 124 Кбит/сек
Каналы : 2 канала
Channel layout : L R
Частота : 44,1 КГц
Частота кадров : 43,066 кадра/сек (1024 SPF)
Метод сжатия : С потерями
Задержка видео : -46 мс.
Размер потока : 98,6 Мбайт (2%)
Язык : Chinese
Default : Нет
Forced : Нет
[ivtracker.org].t31377.torrent 
 ЗОЛОТАЯ РАЗДАЧА! СКАЧАННОЕ НЕ ЗАСЧИТЫВАЕТСЯ! 
Торрент: Зарегистрирован [ 2022-01-30 06:07 ] · 03178E6459F2C526C938A3B94408FB67771844B5

Скачать .torrent

Скачать

11 KB

Статус: T временная · admin · 2 года 5 месяцев назад
Скачан: 0 раз
Размер: 4.22 GB
Поделиться:
 
Похожие темы
[Профиль] [ЛС]
Вернуться к началу
Показать сообщения:    
Ответить на тему

Текущее время: 13-Июл 03:32

Часовой пояс: UTC + 3



Вы не можете начинать темы
Вы не можете отвечать на сообщения
Вы не можете редактировать свои сообщения
Вы не можете удалять свои сообщения
Вы не можете голосовать в опросах
Вы не можете прикреплять файлы к сообщениям
Вы можете скачивать файлы