Летчик (2021) WEB-DLRip 1080p от ELEKTRI4KA | КиноПоиск HD

Reply to topic
DL-List and Torrent activity [Update пиров]
Size:  4.82 GB   |    Registered:  14 days   |    Completed:  0 times
Seeders:  82  [  0 KB/s  ]   Leechers:  6  [  0 KB/s  ]   Show peers in full details
 
   
 
 
Author Message

admin ®

Gender: Male

Longevity: 4 years 4 months

Posts: 15073

Post 14-Jan-2022 06:46

[Quote]

Информация о фильме
Название: Летчик
Год выхода: 2021
Жанр: военный, биография, драма, история
Режиссер: Ренат Давлетьяров
В ролях: Пётр Фёдоров, Анна Пескова, Павел Осадчий, Максим Емельянов, Елена Дробышева, Евгений Михеев, Гела Месхи, Роман Книжка, Марчин Стец, Николоз Паикридзе
О фильме:
Декабрь 1941 года. Летчик Николай Комлев успешно выполняет приказ и уничтожает немецкую танковую колонну, движущуюся к Москве. Но самолет Комлева подбит вражескими истребителями, и летчик чудом сажает свой Ил-2 на глухую лесную поляну. Кажется, самое страшное позади — он выжил в воздушном бою. Однако испытания только начинаются: раненому Комлеву предстоит проделать немыслимый путь, превозмогая мороз, боль и голод, спасаясь от волков и спецотряда нацистов, задача которых — найти его во что бы то ни стало. Летчика ведут воля к жизни, мужество и, конечно, любовь. Дома его ждет Ольга, именно ее образ согревает его в стужу и помогает двигаться вперед, к спасению. У него лишь один шанс выжить, чтобы вернуться к любимой, снова подняться в небо и победить.

Выпущено: Россия / ДАПродакшн, Интерфест, Star Media
Продолжительность: 01:41:01
Озвучивание: Оригинальное | КиноПоиск HD
Файл
Формат: MKV
Качество: WEB-DLRip 1080p
Видео: MPEG-4 AVC, 6000 Kb/s, 1920x806
Аудио: Russian: AC3, 448 Kb/s (6 ch) / Е-AC3, 448 Kb/s (6 ch)
Субтитры: Нет
Дополнительно: Нет

Инфо-файл:

Complete name : Letchik.2021.KP.WEB-DL.1080p.ELEKTRI4KA.UNIONGANG.mkv
Format : Matroska
Format version : Version 4
File size : 4.82 GiB
Duration : 1 h 41 min
Overall bit rate : 6 837 kb/s
Movie name : Letchik.2021.KP.WEB-DL.1080p.ELEKTRI4KA.UNIONGANG.
Encoded date : UTC 2021-12-24 18:27:15
Writing application : mkvmerge v8.3.0 ('Over the Horizon') 32bit
Writing library : libebml v1.3.1 + libmatroska v1.4.2
Video
ID : 1
Format : AVC
Format/Info : Advanced Video Codec
Format profile : High@L4
Format settings : CABAC / 5 Ref Frames
Format settings, CABAC : Yes
Format settings, Reference frames : 5 frames
Codec ID : V_MPEG4/ISO/AVC
Duration : 1 h 41 min
Bit rate : 6 000 kb/s
Width : 1 920 pixels
Height : 806 pixels
Display aspect ratio : 2.40:1
Frame rate mode : Constant
Frame rate : 25.000 FPS
Color space : YUV
Chroma subsampling : 4:2:0
Bit depth : 8 bits
Scan type : Progressive
Bits/(Pixel*Frame) : 0.155
Stream size : 4.19 GiB (87%)
Writing library : x264 core 157
Encoding settings : cabac=1 / ref=5 / deblock=1:0:0 / analyse=0x3:0x133 / me=umh / subme=10 / psy=1 / psy_rd=1.00:0.00 / mixed_ref=1 / me_range=24 / chroma_me=1 / trellis=2 / 8x8dct=1 / cqm=0 / deadzone=21,11 / fast_pskip=1 / chroma_qp_offset=-2 / threads=25 / lookahead_threads=4 / sliced_threads=0 / nr=0 / decimate=1 / interlaced=0 / bluray_compat=0 / stitchable=1 / constrained_intra=0 / bframes=8 / b_pyramid=2 / b_adapt=2 / b_bias=0 / direct=3 / weightb=1 / open_gop=0 / weightp=2 / keyint=200 / keyint_min=100 / scenecut=40 / intra_refresh=0 / rc_lookahead=60 / rc=2pass / mbtree=1 / bitrate=6000 / ratetol=1.0 / qcomp=0.60 / qpmin=0 / qpmax=69 / qpstep=4 / cplxblur=20.0 / qblur=0.5 / vbv_maxrate=6600 / vbv_bufsize=9000 / nal_hrd=none / filler=0 / ip_ratio=1.40 / aq=1:1.00
Default : Yes
Forced : No
Audio #1
ID : 2
Format : AC-3
Format/Info : Audio Coding 3
Commercial name : Dolby Digital
Codec ID : A_AC3
Duration : 1 h 41 min
Bit rate mode : Constant
Bit rate : 448 kb/s
Channel(s) : 6 channels
Channel layout : L R C LFE Ls Rs
Sampling rate : 48.0 kHz
Frame rate : 31.250 FPS (1536 SPF)
Compression mode : Lossy
Stream size : 324 MiB (7%)
Title : Original AC3 (KinoPoisk HD)
Language : Russian
Service kind : Complete Main
Default : Yes
Forced : Yes
Audio #2
ID : 3
Format : E-AC-3
Format/Info : Enhanced AC-3
Commercial name : Dolby Digital Plus
Codec ID : A_EAC3
Duration : 1 h 41 min
Bit rate mode : Constant
Bit rate : 448 kb/s
Channel(s) : 6 channels
Channel layout : L R C LFE Ls Rs
Sampling rate : 48.0 kHz
Frame rate : 31.250 FPS (1536 SPF)
Compression mode : Lossy
Stream size : 324 MiB (7%)
Title : Original E-AC3 (KinoPoisk HD)
Language : Russian
Service kind : Complete Main
Default : No
Forced : No

Скриншоты

 GOLD TORRENT! DOWNLOAD TRAFFIC DOES NOT CONSIDER! 
Torrent: Registered [ 2022-01-14 06:46 ]   · EE3B81B30C9DA0F83D56A670F551EB8670AF0A66

Download .torrent

Download

13 KB

Status: checked
Completed: 0 times
Size: 4.82 GB
Поделиться:
terms.php
[Profile] [PM]
Display posts:    
Reply to topic

Current time is: 28-Jan 12:11

All times are UTC + 3



You cannot post new topics in this forum
You cannot reply to topics in this forum
You cannot edit your posts in this forum
You cannot delete your posts in this forum
You cannot vote in polls in this forum
You cannot attach files in this forum
You can download files in this forum