Лига монстров / Rumble (2021) WEB-DL 1080p от ELEKTRI4KA | D | IVI

Ответить на тему
Статистика раздачи
Размер:  5.8 GB   |    Зарегистрирован:  2 года 6 месяцев   |    Скачан:  0 раз

Полного источника не было: Никогда

 
   
 
 
Автор Сообщение

admin ®

Статус: Не в сети

Стаж: 6 лет 9 месяцев

Сообщений: 23696

Репутация: 0 [+] [-]

Откуда: Россия

Создавать темы 06-Янв-2022 01:37 | #1

[Цитировать]

Информация о фильме
Название: Лига монстров
Оригинальное название: Rumble
Год выхода: 2021
Жанр: Мультфильм, фэнтези, комедия, приключения, семейный, спорт, полномтеражный
Режиссер: Хамиш Грив
В ролях: Уилл Арнетт, Терри Крюс, Джеральдин Вишванатан, Джо Аноаи, Тони Данза, Бен Шварц, Джимми Татро, Фред Меламед, Бриджет Эверетт, Карлос Гомес
О фильме:
В мире, где монстрический реслинг – обожаемый вид спорта, а монстры-спортсмены – настоящие звезды, девушка Винни мечтает пойти по стопам отца и начинает тренировать монстра-аутсайдера. Милашке-неудачнику предстоит пройти непростой путь под руководством юной, но суровой наставницы, чтобы стать чемпионом.

Страна: США, Австралия, Канада
Студия: Paramount Animation, Paramount Pictures, Reel FX Creative Studios, Walden Media, WWE Studios
Продолжительность: 01:34:53
Перевод: Дублированный | IVI
Примечание: Без рекламы
Цифровой релиз: 05 января 2022 года (IVI)
Файл
Формат: MKV
Качество: WEB-DL 1080p
Видео: MPEG-4 AVC, 7914 Кбит/с, 1920x800
Аудио #01: АС3, 2 ch, 192 Кбит/с | RUS
Аудио #02: E-AC3, 6 ch, 640 Кбит/с | ENG
Субтитры: Русские (полные), английские

Скриншоты

MI

Complete name : Liga.monstrov.2021.WEB-DL.1080p.ELEKTRI4KA.UNIONGANG.mkv
Format : Matroska
Format version : Version 4
File size : 5.80 GiB
Duration : 1 h 34 min
Overall bit rate : 8 748 kb/s
Movie name : Liga.monstrov.2021.WEB-DL.1080p.ELEKTRI4KA.UNIONGANG.
Encoded date : UTC 2022-01-05 12:34:17
Writing application : mkvmerge v8.3.0 ('Over the Horizon') 32bit
Writing library : libebml v1.3.1 + libmatroska v1.4.2
Video
ID : 1
Format : AVC
Format/Info : Advanced Video Codec
Format profile : High@L4
Format settings : CABAC / 4 Ref Frames
Format settings, CABAC : Yes
Format settings, Reference frames : 4 frames
Codec ID : V_MPEG4/ISO/AVC
Duration : 1 h 34 min
Bit rate mode : Constant
Bit rate : 7 914 kb/s
Nominal bit rate : 10 000 kb/s
Width : 1 920 pixels
Height : 800 pixels
Display aspect ratio : 2.40:1
Frame rate mode : Constant
Frame rate : 24.000 FPS
Color space : YUV
Chroma subsampling : 4:2:0
Bit depth : 8 bits
Scan type : Progressive
Bits/(Pixel*Frame) : 0.215
Stream size : 5.24 GiB (90%)
Default : Yes
Forced : No
Color range : Limited
Color primaries : BT.709
Transfer characteristics : BT.709
Matrix coefficients : BT.709
Audio #1
ID : 2
Format : AC-3
Format/Info : Audio Coding 3
Commercial name : Dolby Digital
Codec ID : A_AC3
Duration : 1 h 34 min
Bit rate mode : Constant
Bit rate : 192 kb/s
Channel(s) : 2 channels
Channel layout : L R
Sampling rate : 48.0 kHz
Frame rate : 31.250 FPS (1536 SPF)
Compression mode : Lossy
Stream size : 130 MiB (2%)
Title : DUB (IVI)
Language : Russian
Service kind : Complete Main
Default : Yes
Forced : Yes
Audio #2
ID : 3
Format : E-AC-3
Format/Info : Enhanced AC-3
Commercial name : Dolby Digital Plus
Codec ID : A_EAC3
Duration : 1 h 34 min
Bit rate mode : Constant
Bit rate : 640 kb/s
Channel(s) : 6 channels
Channel layout : L R C LFE Ls Rs
Sampling rate : 48.0 kHz
Frame rate : 31.250 FPS (1536 SPF)
Compression mode : Lossy
Stream size : 434 MiB (7%)
Title : Original
Language : English
Service kind : Complete Main
Default : No
Forced : No
Text #1
ID : 4
Format : UTF-8
Codec ID : S_TEXT/UTF8
Codec ID/Info : UTF-8 Plain Text
Duration : 1 h 27 min
Bit rate : 112 b/s
Count of elements : 1433
Stream size : 72.3 KiB (0%)
Title : Full
Language : Russian
Default : No
Forced : No
Text #2
ID : 5
Format : UTF-8
Codec ID : S_TEXT/UTF8
Codec ID/Info : UTF-8 Plain Text
Duration : 1 h 31 min
Bit rate : 83 b/s
Count of elements : 1633
Stream size : 55.8 KiB (0%)
Title : English
Language : English
Default : No
Forced : No
[ivtracker.org].t30314.torrent 
 ЗОЛОТАЯ РАЗДАЧА! СКАЧАННОЕ НЕ ЗАСЧИТЫВАЕТСЯ! 
Торрент: Зарегистрирован [ 2022-01-06 01:37 ] · F0995E439F12DFD0A42DB8EE5F42AD606AA192CA

Скачать .torrent

Скачать

15 KB

Статус: проверено · admin · 2 года 6 месяцев назад
Скачан: 0 раз
Размер: 5.8 GB
Поделиться:
 
Похожие темы
[Профиль] [ЛС]
Вернуться к началу
Показать сообщения:    
Ответить на тему

Текущее время: 13-Июл 02:33

Часовой пояс: UTC + 3



Вы не можете начинать темы
Вы не можете отвечать на сообщения
Вы не можете редактировать свои сообщения
Вы не можете удалять свои сообщения
Вы не можете голосовать в опросах
Вы не можете прикреплять файлы к сообщениям
Вы можете скачивать файлы