Истории о пророках (30 серий)(Канал Ал-Ватан.) [2006, Ислам.]

Reply to topic
DL-List and Torrent activity
Size:  5.88 GB   |    Registered:  3 years   |    Completed:  0 times

Seeder not seen: Never

 
   
 
 
Author Message

admin ®

Gender: Male

Longevity: 3 years 1 month

Posts: 10044

Post 13-Oct-2017 18:29

[Quote]

Истории о пророках. Канал Аль-Ватан.
Год выпуска: 2006
Страна: Кувейт.
Жанр: Ислам.
Продолжительность: Общая, больше 12 часов.
Перевод: Любительский (одноголосый)
Русские субтитры: нет
Режиссер: Канал Ал-Ватан.
В ролях: Шейх Набиль аль-Авади.
Описание: Видео-передачи истории о пророках, ведущий Набиль аль-Авады, рассказывает истории начиная с Адама (а.с.) до нашего пророка Мухаммада (с.а.в.), в эту раздачу вошли передачи:
1.История пророка Адама (а.с.) – часть 1.
2.История пророка Адама (а.с.) – часть 2.
3.История пророка Идриса (а.с.) и Нуха (а.с.) – часть 1.
4.История пророка Нуха (а.с.) – часть 2.
5.История пророка Худа (а.с.).
6.История пророка Салиха (а.с.).
7.История пророка Ибрагима (а.с.) – часть 1.
Торрент перезалит 02.07.10 г. добавлены новые серии
8.История пророка Ибрагима (а.с.) – часть 2.
9.История пророка Ибрагима (а.с.) – часть 3, Исмаила (а.с.), Исхака (а.с.), Якуба (а.с.)
10.История пророка Лута (а.с.)
11.История пророка Шуэйба (а.с.)
Торрент перезалит 07.02.11 г. добавлены новые серии докачайте пожалуйста
12.История пророка Юсуфа (а.с.) - часть 1.
13.История пророка Юсуфа (а.с.) - часть 2.
Торрент перезалит 23.02.11 г. добавлена новая серия докачайте пожалуйста
14.История пророка Юсуфа (а.с.) - часть 3.
Торрент перезалит 02.04.11 г. добавлена новые серии докачайте пожалуйста
15.История пророка Айюба (а.с.)
16.История пророка Юнуса (а.с.)
Торрент перезалит 08.04.11 г. докачайте пожалуйста
перезалита серия Истроия пророка Салиха (а.с.)
Торрент перезалит 26.06.11 г. добавлена новые серии докачайте пожалуйста
17.История пророка Мусы (а.с.) - часть 1.
18.История пророка Мусы (а.с.) - часть 2.
Торрент перезалит 20.07.11 г. добавлена новая серия докачайте пожалуйста
19.История пророка Мусы (а.с.) - часть 3.
Торрент перезалит 04.08.11 г. добавлены новые серии докачайте пожалуйста
20.История пророка Мусы (а.с.) - часть 4.
21.История пророка Хадира (а.с.)
файл hidr.wmv переименуйте 21.hidr.wmv
Торрент перезалит 20.08.11 г. добавлены новые серии докачайте пожалуйста
22.Истории пророка Юша (а.с.), Дауд (а.с.) – часть 1
Торрент перезалит 30.11.11 г. добавлена новая серия докачайте пожалуйста
23.История пророка Дауд (а.с.) – часть 2
Торрент перезалит 05.12.11 г. добавлена новая серия докачайте пожалуйста
24.История пророка Сулеймана (а.с.) – часть 1
Торрент перезалит 21.01.12 г. добавлена новая серия докачайте пожалуйста
25.История пророка Сулеймана (а.с.) – часть 2, Узейра (а.с.)
Торрент перезалит 25.04.12 г. добавлена новая серия докачайте пожалуйста
26.История пророка Закарии (а.с.) и пророка Яхьи (а.с.)
27.История Марьям (а.с.)
28.Истории о пророке Иса (а.с.)
Торрент перезалит 06.05.12 г. добавлена новая серия докачайте пожалуйста
29.История о пророке Мухаммаде (с.г.в.с) да благословит его Аллах и приветствует.
Торрент перезалит 23.05.12 г. добавлена новая серия докачайте пожалуйста
30.История о пророке Мухаммаде (صلى الله عليه وسلم) да благословит его Аллах и приветствует. Заключительная серия.

Тех.данные

Video
ID : 2
Format : VC-1
Format profile : MP@ML
Codec ID : WMV3
Codec ID/Info : Windows Media Video 9
Codec ID/Hint : WMV3
Description of the codec : Windows Media Video 9
Duration : 24mn 58s
Bit rate mode : Variable
Bit rate : 648 Kbps
Width : 640 pixels
Height : 372 pixels
Display aspect ratio : 16:9
Frame rate : 25.000 fps
Resolution : 24 bits
Scan type : Progressive
Bits/(Pixel*Frame) : 0.109
Stream size : 116 MiB (83%)
Language : Russian
Audio
ID : 1
Format : WMA2
Format profile : L1
Codec ID : 161
Codec ID/Info : Windows Media Audio 2
Description of the codec : Windows Media Audio 9.2 - 128 kbps, 44 kHz, stereo (A/V) 1-pass CBR
Duration : 24mn 58s
Bit rate mode : Constant
Bit rate : 128 Kbps
Channel(s) : 2 channels
Sampling rate : 44.1 KHz
Resolution : 16 bits
Stream size : 22.9 MiB (16%)
Language : Russian
Доп. информация: Полная раздача.

Скринлист

Скриншот

Просьба, поддержите пожалуйста раздачу, инша Аллах получим аджэр, саваб.
 GOLD TORRENT! DOWNLOAD TRAFFIC DOES NOT CONSIDER! 
Torrent: Registered [ 2017-10-13 18:29 ]   · 1BE0541152C964BE7730C3D4F68DC27FA0D75B0E

Download .torrent

Download

31 KB

Status: checked
Completed: 0 times
Size: 5.88 GB
Поделиться:
terms.php
[Profile] [PM]
Display posts:    
Reply to topic

Current time is: 28-Oct 03:05

All times are UTC + 3



You cannot post new topics in this forum
You cannot reply to topics in this forum
You cannot edit your posts in this forum
You cannot delete your posts in this forum
You cannot vote in polls in this forum
You cannot attach files in this forum
You can download files in this forum