Чужая Земля / Приливы / Tides / The Colony (2021) BDRip 1080p от ELEKTRI4KA | IVI

Reply to topic
DL-List and Torrent activity [Update пиров]
Size:  11.1 GB   |    Registered:  11 days   |    Completed:  0 times
Seeders:  20  [  0 KB/s  ]   Leechers:  8  [  0 KB/s  ]   Show peers in full details
 
   
 
 
Author Message

admin ®

Gender: Male

Longevity: 4 years 2 months

Posts: 13282

Post 22-Nov-2021 05:59

[Quote]

Информация о фильме
Название: Чужая Земля / Приливы
Оригинальное название: Tides / The Colony
Год выхода: 2021
Жанр: Фантастика, триллер
Режиссер: Тим Фельбаум
В ролях: Нора Арнезедер, Сара-Софи Бусснина, Иэн Глен, Сопе Дирису, Йоэль Басман, Себастьян Роше, Белла Бадинг, Хонг Бергхоф, Луна Мвези, Николя Перо
О фильме:
Будущее. Земля после глобальной экологической катастрофы полностью покрыта водой. Правящей элите удаётся колонизировать планету Кеплер-209, но люди больше не могут иметь детей из-за особых условий в новой атмосфере. Трое ученых отправляются на Землю узнать, возможно ли начать всё сначала. Их корабль терпит крушение при посадке на воду. В результате из всех астронавтов выживает лишь одна девушка. Теперь судьба человечества лежит на ее плечах.

Выпущено: Германия, Швейцария / Berghaus, Wöbke Filmproduktion, Vega FilmConstantin Film
Продолжительность: 01:44:31
Озвучивание: Дублированное | IVI
Файл
Формат: MKV
Качество: BDRip 1080p
Видео: MPEG-4 AVC, 14.2 Мb/s, 1920x804
Аудио: Russian: AC3, 384 Kb/s (6 ch), English: AC3, 640 Kb/s (6 ch)
Субтитры: English
Дополнительно: Сохранены оригинальные чаптеры.

Инфо-файл:

Complete name : Chuzhaya.Zemlya.2021.BDRip.1080p.ELEKTRI4KA.UNIONGANG.mkv
Format : Matroska
Format version : Version 4
File size : 11.1 GiB
Duration : 1 h 44 min
Overall bit rate : 15.2 Mb/s
Movie name : Chuzhaya.Zemlya.2021.BDRip.1080p.ELEKTRI4KA.UNIONGANG.
Encoded date : UTC 2021-11-19 11:37:20
Writing application : mkvmerge v8.3.0 ('Over the Horizon') 32bit
Writing library : libebml v1.3.1 + libmatroska v1.4.2
Video
ID : 1
Format : AVC
Format/Info : Advanced Video Codec
Format profile : High@L4.1
Format settings : CABAC / 5 Ref Frames
Format settings, CABAC : Yes
Format settings, Reference frames : 5 frames
Codec ID : V_MPEG4/ISO/AVC
Duration : 1 h 44 min
Bit rate : 14.2 Mb/s
Width : 1 920 pixels
Height : 804 pixels
Display aspect ratio : 2.40:1
Frame rate mode : Constant
Frame rate : 23.976 (24000/1001) FPS
Color space : YUV
Chroma subsampling : 4:2:0
Bit depth : 8 bits
Scan type : Progressive
Bits/(Pixel*Frame) : 0.383
Stream size : 10.4 GiB (93%)
Writing library : x264 core 157 r2969 d4099dd
Encoding settings : cabac=1 / ref=5 / deblock=1:-3:-3 / analyse=0x3:0x133 / me=umh / subme=11 / psy=1 / psy_rd=1.03:0.00 / mixed_ref=1 / me_range=48 / chroma_me=1 / trellis=2 / 8x8dct=1 / cqm=0 / deadzone=21,11 / fast_pskip=0 / chroma_qp_offset=-4 / threads=24 / lookahead_threads=6 / sliced_threads=0 / nr=0 / decimate=0 / interlaced=0 / bluray_compat=0 / constrained_intra=0 / bframes=12 / b_pyramid=2 / b_adapt=2 / b_bias=0 / direct=3 / weightb=1 / open_gop=0 / weightp=2 / keyint=250 / keyint_min=23 / scenecut=40 / intra_refresh=0 / rc_lookahead=80 / rc=crf / mbtree=1 / crf=15.0 / qcomp=0.60 / qpmin=0 / qpmax=69 / qpstep=4 / vbv_maxrate=62500 / vbv_bufsize=78125 / crf_max=0.0 / nal_hrd=none / filler=0 / ip_ratio=1.30 / aq=2:0.98 / zones=139370,150357,b=0.1
Default : Yes
Forced : No
Audio #1
ID : 2
Format : AC-3
Format/Info : Audio Coding 3
Commercial name : Dolby Digital
Codec ID : A_AC3
Duration : 1 h 44 min
Bit rate mode : Constant
Bit rate : 384 kb/s
Channel(s) : 6 channels
Channel layout : L R C LFE Ls Rs
Sampling rate : 48.0 kHz
Frame rate : 31.250 FPS (1536 SPF)
Compression mode : Lossy
Stream size : 287 MiB (3%)
Title : DUB (IVI)
Language : Russian
Service kind : Complete Main
Default : Yes
Forced : Yes
Audio #2
ID : 3
Format : AC-3
Format/Info : Audio Coding 3
Commercial name : Dolby Digital
Codec ID : A_AC3
Duration : 1 h 44 min
Bit rate mode : Constant
Bit rate : 640 kb/s
Channel(s) : 6 channels
Channel layout : L R C LFE Ls Rs
Sampling rate : 48.0 kHz
Frame rate : 31.250 FPS (1536 SPF)
Compression mode : Lossy
Stream size : 478 MiB (4%)
Language : English
Service kind : Complete Main
Default : No
Forced : No
Text #1
ID : 4
Format : UTF-8
Codec ID : S_TEXT/UTF8
Codec ID/Info : UTF-8 Plain Text
Duration : 1 h 34 min
Bit rate : 25 b/s
Count of elements : 719
Stream size : 17.4 KiB (0%)
Language : English
Default : No
Forced : No
Text #2
ID : 5
Format : UTF-8
Codec ID : S_TEXT/UTF8
Codec ID/Info : UTF-8 Plain Text
Duration : 1 h 35 min
Bit rate : 30 b/s
Count of elements : 904
Stream size : 21.3 KiB (0%)
Language : English
Default : No
Forced : No
Menu
00:00:00.000 : :Chapter 01
00:04:39.988 : :Chapter 02
00:09:50.924 : :Chapter 03
00:14:23.696 : :Chapter 04
00:21:01.594 : :Chapter 05
00:28:27.289 : :Chapter 06
00:36:04.371 : :Chapter 07
00:42:50.943 : :Chapter 08
00:47:34.935 : :Chapter 09
00:51:06.272 : :Chapter 10
00:56:27.134 : :Chapter 11
01:02:43.468 : :Chapter 12
01:08:45.371 : :Chapter 13
01:18:05.848 : :Chapter 14
01:24:19.471 : :Chapter 15
01:33:33.983 : :Chapter 16

Скриншоты

 GOLD TORRENT! DOWNLOAD TRAFFIC DOES NOT CONSIDER! 
Torrent: Registered [ 2021-11-22 05:59 ]   · A23CF5936FE55A13171D0D744778DEC9A4B30900

Download .torrent

Download

29 KB

Status: checked
Completed: 0 times
Size: 11.1 GB
Поделиться:
terms.php
[Profile] [PM]
Display posts:    
Reply to topic

Current time is: 03-Dec 16:32

All times are UTC + 3



You cannot post new topics in this forum
You cannot reply to topics in this forum
You cannot edit your posts in this forum
You cannot delete your posts in this forum
You cannot vote in polls in this forum
You cannot attach files in this forum
You can download files in this forum