Чужая Земля / Приливы / Tides / The Colony (2021) BDRemux 1080p | D | IVI

Reply to topic
DL-List and Torrent activity [Update пиров]
Size:  19.12 GB   |    Registered:  11 days   |    Completed:  0 times
Seeders:  64  [  0 KB/s  ]   Leechers:  3  [  0 KB/s  ]   Show peers in full details
 
   
 
 
Author Message

admin ®

Gender: Male

Longevity: 4 years 2 months

Posts: 13282

Post 22-Nov-2021 05:52

[Quote]

Информация о фильме
Название: Чужая Земля / Приливы
Оригинальное название: Tides / The Colony
Год выхода: 2021
Жанр: Фантастика, триллер
Режиссер: Тим Фельбаум
В ролях: Нора Арнезедер, Иэн Глен, Сара-Софи Бусснина, Сопе Дирису, Себастьян Роше, Йоэль Басман, Котти Юн, Белла Бадинг, Хлоя Генрих, Иден Гоф
О фильме:
После глобальной катастрофы на Земле выжившие люди переселяются на космическую колонию в системе Кеплера. Годы спустя они начинают отправлять на Землю космонавтов, чтобы определить, появились ли на планете условия для жизни. Прибыв во второй из таких экспедиций астронавт Луиза Блейк выясняет, что несмотря на постоянные приливы уничтожающие и без того скудную пищу, на Земле всё таки имеются выжившие, однако их сообщества ведут постоянную борьбу за ресурсы. Вскоре она открывается страшная тайна первой экспедиции, в которой участвовал её отец и девушка оказывается перед решением, которое может стать роковым как для заброшенной планеты, так и для всего человечества.

Страна: Германия
Студия: Berghaus, Wöbke Filmproduktion, Vega FilmConstantin Film
Продолжительность: 01:44:31
Перевод: Профессиональный (полное дублирование) | IVI
Субтитры: Английские
Файл
Формат: Matroska
Качество: BDRemux 1080p
Видео: AVC/H.264, 1920x1080, ~24 Mbps
Аудио 1: AC3, 6 ch, ~384 kbps - | Русский |
Аудио 2: DTS-HD MA, 6 ch, 1823 Kbps - | Английский |
Формат субтитров: softsub (SRT)

M/I

Общее
Уникальный идентификатор : 172301843312893665886163566987221318978 (0x81A020C164972D85BE91531BA906BD42)
Полное имя : G:The.Colony.2021.BDRemux.1080p.NNMClub.mkv
Формат : Matroska
Версия формата : Version 4
Размер файла : 19,1 Гбайт
Продолжительность : 1 ч. 44 м.
Режим общего битрейта : Переменный
Общий поток : 26,2 Мбит/сек
Дата кодирования : UTC 2021-11-21 05:56:10
Программа кодирования : mkvmerge v63.0.0 ('Everything') 64-bit
Библиотека кодирования : libebml v1.4.2 + libmatroska v1.6.4
Видео
Идентификатор : 1
Формат : AVC
Формат/Информация : Advanced Video Codec
Профиль формата : High@L4.1
Настройки формата : CABAC / 4 Ref Frames
Параметр CABAC формата : Да
Параметр RefFrames формата : 4 кадра
Идентификатор кодека : V_MPEG4/ISO/AVC
Продолжительность : 1 ч. 44 м.
Вид битрейта : Переменный
Битрейт : 24,0 Мбит/сек
Максимальный битрейт : 35,0 Мбит/сек
Ширина : 1 920 пикселей
Высота : 1 080 пикселей
Соотношение сторон : 16:9
Режим частоты кадров : Постоянный
Частота кадров : 23,976 (24000/1001) кадра/сек
Стандарт вещания : NTSC
Цветовое пространство : YUV
Субдискретизация насыщенности : 4:2:0
Битовая глубина : 8 бит
Тип развёртки : Прогрессивная
Бит/(Пиксели*Кадры) : 0.482
Размер потока : 17,5 Гбайт (92%)
Default : Да
Forced : Нет
Цветовой диапазон : Limited
Основные цвета : BT.709
Характеристики трансфера : BT.709
Коэффициенты матрицы : BT.709
Аудио #1
Идентификатор : 2
Формат : AC-3
Формат/Информация : Audio Coding 3
Коммерческое название : Dolby Digital
Идентификатор кодека : A_AC3
Продолжительность : 1 ч. 44 м.
Вид битрейта : Постоянный
Битрейт : 384 Кбит/сек
Каналы : 6 каналов
Channel layout : L R C LFE Ls Rs
Частота : 48,0 КГц
Частота кадров : 31,250 кадров/сек (1536 SPF)
Метод сжатия : С потерями
Размер потока : 287 Мбайт (1%)
Заголовок : DUB (IVI)
Язык : Russian
Service kind : Complete Main
Default : Да
Forced : Да
Аудио #2
Идентификатор : 3
ID in the original source medium : 4353 (0x1101)
Формат : DTS XLL
Формат/Информация : Digital Theater Systems
Коммерческое название : DTS-HD Master Audio
Идентификатор кодека : A_DTS
Продолжительность : 1 ч. 44 м.
Вид битрейта : Переменный
Битрейт : 1 823 Кбит/сек
Каналы : 6 каналов
Channel layout : C L R Ls Rs LFE
Частота : 48,0 КГц
Частота кадров : 93,750 кадра/сек (512 SPF)
Битовая глубина : 16 бит
Метод сжатия : Без потерь
Размер потока : 1,33 Гбайт (7%)
Заголовок : Original
Язык : English
Default : Нет
Forced : Нет
Носитель оригинала : Blu-ray
Текст #1
Идентификатор : 4
Формат : UTF-8
Идентификатор кодека : S_TEXT/UTF8
Идентификатор кодека/Информация : UTF-8 Plain Text
Продолжительность : 1 ч. 34 м.
Битрейт : 25 бит/сек
Count of elements : 719
Размер потока : 17,4 Кбайт (0%)
Язык : English
Default : Нет
Forced : Нет
Текст #2
Идентификатор : 5
Формат : UTF-8
Идентификатор кодека : S_TEXT/UTF8
Идентификатор кодека/Информация : UTF-8 Plain Text
Продолжительность : 1 ч. 35 м.
Битрейт : 30 бит/сек
Count of elements : 904
Размер потока : 21,3 Кбайт (0%)
Язык : English
Default : Нет
Forced : Нет
Меню
00:00:00.000 : en:Chapter 01
00:06:17.085 : en:Chapter 02
00:13:05.242 : en:Chapter 03
00:18:49.044 : en:Chapter 04
00:25:52.467 : en:Chapter 05
00:31:50.116 : en:Chapter 06
00:38:38.316 : en:Chapter 07
00:43:24.393 : en:Chapter 08
00:50:42.581 : en:Chapter 09
00:57:24.732 : en:Chapter 10
01:04:54.473 : en:Chapter 11
01:11:24.571 : en:Chapter 12
01:17:42.157 : en:Chapter 13
01:24:09.169 : en:Chapter 14
01:31:22.727 : en:Chapter 15
01:36:58.229 : en:Chapter 16

Скриншоты

 GOLD TORRENT! DOWNLOAD TRAFFIC DOES NOT CONSIDER! 
Torrent: Registered [ 2021-11-22 05:52 ]   · A1ACEAE9927A8C98941F1E97AB79F4F41F88A593

Download .torrent

Download

192 KB

Status: checked
Completed: 0 times
Size: 19.12 GB
Поделиться:
terms.php
[Profile] [PM]
Display posts:    
Reply to topic

Current time is: 03-Dec 15:34

All times are UTC + 3



You cannot post new topics in this forum
You cannot reply to topics in this forum
You cannot edit your posts in this forum
You cannot delete your posts in this forum
You cannot vote in polls in this forum
You cannot attach files in this forum
You can download files in this forum