Молоко (2021) WEB-DL 1080p от ELEKTRI4KA | IVI

Reply to topic
DL-List and Torrent activity [Update пиров]
Size:  4.99 GB   |    Registered:  1 month 11 days   |    Completed:  0 times
Seeders:  18  [  0 KB/s  ]   Leechers:  2  [  0 KB/s  ]   Show peers in full details
 
   
 
 
Author Message

admin ®

Gender: Male

Longevity: 4 years 2 months

Posts: 13282

Post 23-Oct-2021 13:11

[Quote]

Информация о фильме
Название: Молоко
Год выхода: 2021
Жанр: Драма
Режиссер: Карен Оганесян
В ролях: Юлия Пересильд, Гоша Куценко, Андрей Бурковский, Юрий Колокольников, Елена Валюшкина, Эрик Панич, Егор Абрамов, Евгения Каверау, Ирина Воронова
О фильме:
Жителей города Кировска давно не удивить красотой северного сияния. Однажды именно благодаря ему простая девушка Зоя получает фантастический дар — магическую силу, способную менять судьбы людей.

Страна: Россия
Студия: IRSNA MEDIA, Карго Фильм
Продолжительность: 01:58:50
Язык: Русский | IVI
Примечание: Без рекламы
Цифровой релиз: 22 октября 2021 года (START)
Файл
Формат: MKV
Качество: WEB-DL 1080p
Видео: MPEG-4 AVC, 5120 Кбит/с, 1920x804
Аудио #01: AC3, 6 ch, 384 Кбит/с | RUS
Аудио #02: AАC, 6 ch, 512 Кбит/с | RUS
Субтитры: Отсутствуют

Скриншоты

MI

Complete name : Moloko.2021.WEB-DL.1080p.ELEKTRI4KA.UNIONGANG.mkv
Format : Matroska
Format version : Version 4
File size : 4.99 GiB
Duration : 1 h 58 min
Overall bit rate : 6 017 kb/s
Movie name : Moloko.2021.WEB-DL.1080p.ELEKTRI4KA.UNIONGANG.
Encoded date : UTC 2021-10-22 08:30:48
Writing application : mkvmerge v8.3.0 ('Over the Horizon') 32bit
Writing library : libebml v1.3.1 + libmatroska v1.4.2
Video
ID : 1
Format : AVC
Format/Info : Advanced Video Codec
Format profile : High@L4
Format settings : CABAC / 4 Ref Frames
Format settings, CABAC : Yes
Format settings, Reference frames : 4 frames
Codec ID : V_MPEG4/ISO/AVC
Duration : 1 h 58 min
Bit rate : 5 120 kb/s
Width : 1 920 pixels
Height : 804 pixels
Display aspect ratio : 2.40:1
Frame rate mode : Constant
Frame rate : 24.000 FPS
Color space : YUV
Chroma subsampling : 4:2:0
Bit depth : 8 bits
Scan type : Progressive
Bits/(Pixel*Frame) : 0.138
Stream size : 4.25 GiB (85%)
Writing library : x264 core 152 r2854 e9a5903
Encoding settings : cabac=1 / ref=3 / deblock=1:0:0 / analyse=0x3:0x113 / me=hex / subme=7 / psy=1 / psy_rd=1.00:0.00 / mixed_ref=1 / me_range=16 / chroma_me=1 / trellis=1 / 8x8dct=1 / cqm=0 / deadzone=21,11 / fast_pskip=1 / chroma_qp_offset=-2 / threads=25 / lookahead_threads=4 / sliced_threads=0 / nr=0 / decimate=1 / interlaced=0 / bluray_compat=0 / constrained_intra=0 / bframes=6 / b_pyramid=2 / b_adapt=1 / b_bias=0 / direct=1 / weightb=1 / open_gop=0 / weightp=2 / keyint=48 / keyint_min=25 / scenecut=0 / intra_refresh=0 / rc_lookahead=40 / rc=2pass / mbtree=1 / bitrate=5120 / ratetol=1.0 / qcomp=0.60 / qpmin=0 / qpmax=69 / qpstep=4 / cplxblur=20.0 / qblur=0.5 / vbv_maxrate=7680 / vbv_bufsize=20480 / nal_hrd=none / filler=0 / ip_ratio=1.40 / aq=1:1.00
Default : Yes
Forced : No
Audio #1
ID : 2
Format : AC-3
Format/Info : Audio Coding 3
Commercial name : Dolby Digital
Codec ID : A_AC3
Duration : 1 h 58 min
Bit rate mode : Constant
Bit rate : 384 kb/s
Channel(s) : 6 channels
Channel layout : L R C LFE Ls Rs
Sampling rate : 48.0 kHz
Frame rate : 31.250 FPS (1536 SPF)
Compression mode : Lossy
Delay relative to video : -43 ms
Stream size : 326 MiB (6%)
Title : Original AC3 (IVI)
Language : Russian
Service kind : Complete Main
Default : Yes
Forced : Yes
Audio #2
ID : 3
Format : AAC LC
Format/Info : Advanced Audio Codec Low Complexity
Codec ID : A_AAC-2
Duration : 1 h 58 min
Bit rate : 512 kb/s
Channel(s) : 6 channels
Channel layout : C L R Ls Rs LFE
Sampling rate : 48.0 kHz
Frame rate : 46.875 FPS (1024 SPF)
Compression mode : Lossy
Delay relative to video : -43 ms
Stream size : 435 MiB (9%)
Title : Original AAC (IVI)
Language : Russian
Default : No
Forced : No
 GOLD TORRENT! DOWNLOAD TRAFFIC DOES NOT CONSIDER! 
Torrent: Registered [ 2021-10-23 13:11 ]   · 46D31951C1DC020AED655729C27FF71720EC4A53

Download .torrent

Download

13 KB

Status: checked
Completed: 0 times
Size: 4.99 GB
Поделиться:
terms.php
[Profile] [PM]
Display posts:    
Reply to topic

Current time is: 03-Dec 16:18

All times are UTC + 3



You cannot post new topics in this forum
You cannot reply to topics in this forum
You cannot edit your posts in this forum
You cannot delete your posts in this forum
You cannot vote in polls in this forum
You cannot attach files in this forum
You can download files in this forum