Соври мне правду (2021) WEBRip 1080p

Reply to topic
DL-List and Torrent activity [Update пиров]
Size:  4.15 GB   |    Registered:  9 days   |    Completed:  0 times
Seeders:  323  [  0 KB/s  ]   Leechers:  18  [  0 KB/s  ]   Show peers in full details
 
   
 
 
Author Message

admin ®

Gender: Male

Longevity: 4 years

Posts: 13084

Post 12-Oct-2021 04:04

[Quote]

Информация о фильме
Название: Соври мне правду
Год выхода: 2021
Жанр: Триллер, драма
Режиссер: Ольга Акатьева
В ролях: Дарья Мельникова, Евгений Романцов, Елизавета Кононова, Павел Прилучный, Александр Обласов, Григорий Верник
О фильме:
Влюбленная пара уединяется вдали от цивилизации. Они не так давно вместе, но парень уверен: он встретил свою единственную. Внезапный приезд младшей сестры, а потом и бывшего бойфренда девушки разрушает романтическую идиллию. Герои становятся заложниками желаний и страстей друг друга. Романтику сменяет страсть, а невинный флирт влечет за собой яростную ревность. Все более опасные психологические игры грозят привести к жестокой развязке.

Страна: Россия
Студия: START, «Окапи продакшн»
Продолжительность: 01:28:00
Язык: Русский
Примечание: Без рекламы
Версия 18+
Файл
Формат: MKV
Качество: WEBRip 1080p
Видео: MPEG-4 AVC, ~ 6500 Кбит/с, 1920x720
Звук: AC3, 2 ch, 384 Кбит/с
Субтитры: Отсутствуют

Скриншоты

MI

Общее
Уникальный идентификатор : 172168845428401957071017595558619754783 (0x81868374168D11BDF1AD1D283703B11F)
Полное имя : D:Sovri.mne.pravdu.2021.WEB-DL.1080p.mkv
Формат : Matroska
Версия формата : Version 4
Размер файла : 4,15 Гбайт
Продолжительность : 1 ч. 27 м.
Общий поток : 6 784 Кбит/сек
Название фильма : Sovri.mne.pravdu.2021.WEB-DL.1080p
Дата кодирования : UTC 2021-10-08 03:38:41
Программа кодирования : mkvmerge v60.0.0 ('Are We Copies?') 64-bit
Библиотека кодирования : libebml v1.4.2 + libmatroska v1.6.4
Attachments : poster.jpg
Видео
Идентификатор : 1
Формат : AVC
Формат/Информация : Advanced Video Codec
Профиль формата : High@L4
Настройки формата : CABAC / 4 Ref Frames
Параметр CABAC формата : Да
Параметр RefFrames формата : 4 кадра
Идентификатор кодека : V_MPEG4/ISO/AVC
Продолжительность : 1 ч. 27 м.
Битрейт : 6 480 Кбит/сек
Ширина : 1 920 пикселей
Высота : 1 080 пикселей
Соотношение сторон : 16:9
Режим частоты кадров : Постоянный
Частота кадров : 24,000 кадра/сек
Цветовое пространство : YUV
Субдискретизация насыщенности : 4:2:0
Битовая глубина : 8 бит
Тип развёртки : Прогрессивная
Бит/(Пиксели*Кадры) : 0.130
Размер потока : 3,91 Гбайт (94%)
Библиотека кодирования : x264 core 152
Настройки программы : cabac=1 / ref=2 / deblock=1:0:0 / analyse=0x3:0x113 / me=hex / subme=6 / psy=1 / psy_rd=1.00:0.00 / mixed_ref=1 / me_range=16 / chroma_me=1 / trellis=1 / 8x8dct=1 / cqm=0 / deadzone=21,11 / fast_pskip=1 / chroma_qp_offset=-2 / threads=12 / lookahead_threads=2 / sliced_threads=0 / nr=0 / decimate=1 / interlaced=0 / bluray_compat=0 / constrained_intra=0 / bframes=3 / b_pyramid=2 / b_adapt=1 / b_bias=0 / direct=1 / weightb=1 / open_gop=0 / weightp=1 / keyint=250 / keyint_min=24 / scenecut=40 / intra_refresh=0 / rc_lookahead=30 / rc=abr / mbtree=1 / bitrate=6480 / ratetol=1.0 / qcomp=0.60 / qpmin=0 / qpmax=69 / qpstep=4 / vbv_maxrate=7776 / vbv_bufsize=15552 / nal_hrd=none / filler=0 / ip_ratio=1.40 / aq=1:1.00
Default : Да
Forced : Нет
Цветовой диапазон : Limited
Основные цвета : BT.709
Характеристики трансфера : BT.709
Коэффициенты матрицы : BT.709
Аудио
Идентификатор : 2
Формат : AC-3
Формат/Информация : Audio Coding 3
Коммерческое название : Dolby Digital
Идентификатор кодека : A_AC3
Продолжительность : 1 ч. 27 м.
Вид битрейта : Постоянный
Битрейт : 384 Кбит/сек
Каналы : 2 канала
Channel layout : L R
Частота : 48,0 КГц
Частота кадров : 31,250 кадров/сек (1536 SPF)
Метод сжатия : С потерями
Задержка видео : -83 мс.
Размер потока : 240 Мбайт (6%)
Язык : Russian
Service kind : Complete Main
Default : Да
Forced : Нет
 GOLD TORRENT! DOWNLOAD TRAFFIC DOES NOT CONSIDER! 
Torrent: Registered [ 2021-10-12 04:04 ]   · 91E8F36474DCFB0CD04EB586341A8B9C606077D1

Download .torrent

Download

11 KB

Status: checked
Completed: 0 times
Size: 4.15 GB
Поделиться:
terms.php
[Profile] [PM]
Display posts:    
Reply to topic

Current time is: 22-Oct 02:28

All times are UTC + 3



You cannot post new topics in this forum
You cannot reply to topics in this forum
You cannot edit your posts in this forum
You cannot delete your posts in this forum
You cannot vote in polls in this forum
You cannot attach files in this forum
You can download files in this forum