Папа в декрете [01-06 из 08] (2021) WEB-DL 1080p

Reply to topic
DL-List and Torrent activity [Update пиров]
Size:  2.35 GB   |    Registered:  1 month 2 days   |    Completed:  0 times
Seeders:  1  [  0 KB/s  ]   Leechers:  1  [  0 KB/s  ]   Show peers in full details
 
   
 
 
Author Message

admin ®

Gender: Male

Longevity: 3 years 11 months

Posts: 12952

Post 16-Aug-2021 01:12

[Quote]

Информация о фильме
Название: Папа в декрете
Год выхода: 2021
Жанр: Комедия, семейный
Режиссер: Вадим Плохотников
В ролях: Антон Лирник, Герда Пугачева, Марк Румянцев
О фильме:
Жена Антона получила повышение и теперь он остался дома один с тремя детьми. Новоиспеченный «Папа в декрете» попадает в новый и незнакомый мир, где правят беспорядок и крики. Популярные блогеры и эксперты не оставят Антона в беде и поделятся советами и лайфхаками о воспитании детей.

Страна: Россия
Студия: Производство ООО «Джус» по заказу АО СТС
Продолжительность: 6 х ~ 00:16:00
Язык: Русский
Премьера: 10 июля 2021 года (СТС)
Примечание: Без рекламы
Файл
Формат: MKV
Качество: WEBRip 1080p
Видео: MPEG-4 AVC, ~ 3500 Кбит/с, 1920x1080
Звук: AC3, 2 ch, 192 Кбит/с
Субтитры: Отсутствуют
Семпл

Скриншоты

MI

Общее
Уникальный идентификатор : 87178495771934116100769170232893428241 (0x4195F7B1727FFED23C8505D488FAD211)
Полное имя : D:Papa.v.dekrete.2021.WEB-DL.1080p1.Papa.v.dekrete.2021.WEB-DL.1080p.mkv
Формат : Matroska
Версия формата : Version 4
Размер файла : 401 Мбайт
Продолжительность : 15 м. 21 с.
Общий поток : 3 652 Кбит/сек
Название фильма : 01.Papa.v.dekrete.2021.WEB-DL.1080p
Дата кодирования : UTC 2021-08-07 07:11:36
Программа кодирования : mkvmerge v60.0.0 ('Are We Copies?') 64-bit
Библиотека кодирования : libebml v1.4.2 + libmatroska v1.6.4
Attachments : poster.jpg
Видео
Идентификатор : 1
Формат : AVC
Формат/Информация : Advanced Video Codec
Профиль формата : High@L5
Настройки формата : CABAC / 5 Ref Frames
Параметр CABAC формата : Да
Параметр RefFrames формата : 5 кадров
Идентификатор кодека : V_MPEG4/ISO/AVC
Продолжительность : 15 м. 21 с.
Битрейт : 3 456 Кбит/сек
Ширина : 1 920 пикселей
Высота : 1 080 пикселей
Соотношение сторон : 16:9
Режим частоты кадров : Постоянный
Частота кадров : 25,000 кадров/сек
Стандарт вещания : PAL
Цветовое пространство : YUV
Субдискретизация насыщенности : 4:2:0
Битовая глубина : 8 бит
Тип развёртки : Прогрессивная
Бит/(Пиксели*Кадры) : 0.067
Размер потока : 380 Мбайт (95%)
Default : Да
Forced : Нет
Цветовой диапазон : Limited
Основные цвета : BT.709
Характеристики трансфера : BT.709
Коэффициенты матрицы : BT.709
Аудио
Идентификатор : 2
Формат : AC-3
Формат/Информация : Audio Coding 3
Коммерческое название : Dolby Digital
Идентификатор кодека : A_AC3
Продолжительность : 15 м. 21 с.
Вид битрейта : Постоянный
Битрейт : 192 Кбит/сек
Каналы : 2 канала
Channel layout : L R
Частота : 48,0 КГц
Частота кадров : 31,250 кадров/сек (1536 SPF)
Метод сжатия : С потерями
Размер потока : 21,1 Мбайт (5%)
Service kind : Complete Main
Default : Да
Forced : Нет
 GOLD TORRENT! DOWNLOAD TRAFFIC DOES NOT CONSIDER! 
Torrent: Registered [ 2021-08-16 01:12 ]   · 8AE7C24C65DA92655E1F2E0D0E8118F9D523A8CE

Download .torrent

Download

13 KB

Status: checked
Completed: 0 times
Size: 2.35 GB
Поделиться:
terms.php
[Profile] [PM]
Display posts:    
Reply to topic

Current time is: 18-Sep 08:09

All times are UTC + 3



You cannot post new topics in this forum
You cannot reply to topics in this forum
You cannot edit your posts in this forum
You cannot delete your posts in this forum
You cannot vote in polls in this forum
You cannot attach files in this forum
You can download files in this forum