В конце туннеля / Al final del túnel (2016) BDRip 720p от ExKinoRay | iTunes

Reply to topic
DL-List and Torrent activity [Update пиров]
Size:  3.48 GB   |    Registered:  5 days   |    Completed:  0 times
Seeders:  14  [  0 KB/s  ]   Leechers:  2  [  0 KB/s  ]   Show peers in full details
 
   
 
 
Author Message

admin ®

Gender: Male

Longevity: 3 years 10 months

Posts: 12744

Post 22-Jul-2021 05:19

[Quote]

Информация о фильме
Название: В конце туннеля
Оригинальное название: Al final del túnel
Год выпуска: 2016
Жанр: Триллер, криминал
Режиссер: Родриго Гранде
В ролях: Леонардо Сбараглиа, Пабло Эчарри, Клара Лаго, Уолтер Донато, Серджо Феррейро, Хавьер Годино, Федерико Луппи
Описание: Банда грабителей пытается сорвать большой куш, построив подземный туннель под банком. Происходящее привлекает внимание Хоакина, парализованного человека в инвалидном кресле, проживающего в соседнем доме. Но он совсем не торопится разоблачить гангстеров, так как считает, что у него появился шанс.

Страна: Аргентина, Испания
Студия: Haddock Films, Televisión Española (TVE), Tornasol Films
Продолжительность: 02:00:23
Перевод: Профессиональный (полное дублирование) | iTunes
Субтитры: Русские (full), испанские (SDH)
Файл
Качество: BDRip 720p | исх. Al.final.del.tunel.2016.BDRemux.1080p.NovaLan |
Видео: AVC, 1280x536 (2.40:1), 3120 kbps, 23.976 fps, 0,190 bpp
Аудио1: 48 kHz, AC3, 5.1, 384 Kbps | RUS |
Аудио2: 48 kHz, AC3, 5.1, 640 Kbps | SPA |

MI

General
Unique ID : 224127123921236466042336716954568452748 (0xA89D505DC704B8D4B0B07BA3CC8F6A8C)
Complete name : F:Al.final.del.tunel.2016.BDRip.720p.ExKinoRay.mkv
Format : Matroska
Format version : Version 4
File size : 3.48 GiB
Duration : 2 h 0 min
Overall bit rate : 4 140 kb/s
Movie name : Al final del tunel (2016) from ExKinoRay
Encoded date : UTC 2021-07-21 03:55:33
Writing application : mkvmerge v7.8.0 ('River Man') 64bit built on Mar 27 2015 16:31:37
Writing library : libebml v1.3.1 + libmatroska v1.4.2
Video
ID : 1
Format : AVC
Format/Info : Advanced Video Codec
Format profile : High@L4.1
Format settings : CABAC / 12 Ref Frames
Format settings, CABAC : Yes
Format settings, Reference : 12 frames
Codec ID : V_MPEG4/ISO/AVC
Duration : 2 h 0 min
Bit rate : 3 120 kb/s
Width : 1 280 pixels
Height : 536 pixels
Display aspect ratio : 2.40:1
Frame rate mode : Constant
Frame rate : 23.976 (24000/1001) FPS
Color space : YUV
Chroma subsampling : 4:2:0
Bit depth : 8 bits
Scan type : Progressive
Bits/(Pixel*Frame) : 0.190
Stream size : 2.62 GiB (75%)
Title : Enigma
Writing library : x264 core 144 r2525 40bb568
Encoding settings : cabac=1 / ref=12 / deblock=1:-2:-2 / analyse=0x3:0x113 / me=umh / subme=10 / psy=1 / psy_rd=1.05:0.08 / mixed_ref=1 / me_range=32 / chroma_me=1 / trellis=2 / 8x8dct=1 / cqm=0 / deadzone=21,11 / fast_pskip=1 / chroma_qp_offset=-3 / threads=12 / lookahead_threads=3 / sliced_threads=0 / nr=0 / decimate=0 / interlaced=0 / bluray_compat=0 / constrained_intra=0 / bframes=10 / b_pyramid=2 / b_adapt=2 / b_bias=0 / direct=3 / weightb=1 / open_gop=0 / weightp=2 / keyint=240 / keyint_min=23 / scenecut=40 / intra_refresh=0 / rc_lookahead=40 / rc=2pass / mbtree=0 / bitrate=3120 / ratetol=1.0 / qcomp=0.60 / qpmin=0 / qpmax=51 / qpstep=4 / cplxblur=20.0 / qblur=0.5 / vbv_maxrate=50000 / vbv_bufsize=62500 / nal_hrd=none / filler=0 / ip_ratio=1.40 / pb_ratio=1.30 / aq=3:0.90
Language : English
Default : Yes
Forced : No
Color range : Limited
Color primaries : BT.709
Transfer characteristics : BT.709
Matrix coefficients : BT.709
Audio #1
ID : 2
Format : AC-3
Format/Info : Audio Coding 3
Commercial name : Dolby Digital
Codec ID : A_AC3
Duration : 2 h 0 min
Bit rate mode : Constant
Bit rate : 384 kb/s
Channel(s) : 6 channels
Channel layout : L R C LFE Ls Rs
Sampling rate : 48.0 kHz
Frame rate : 31.250 FPS (1536 SPF)
Compression mode : Lossy
Stream size : 330 MiB (9%)
Language : Russian
Service kind : Complete Main
Default : Yes
Forced : No
Audio #2
ID : 3
Format : AC-3
Format/Info : Audio Coding 3
Commercial name : Dolby Digital
Codec ID : A_AC3
Duration : 2 h 0 min
Bit rate mode : Constant
Bit rate : 640 kb/s
Channel(s) : 6 channels
Channel layout : L R C LFE Ls Rs
Sampling rate : 48.0 kHz
Frame rate : 31.250 FPS (1536 SPF)
Compression mode : Lossy
Stream size : 551 MiB (15%)
Language : Spanish
Service kind : Complete Main
Default : No
Forced : No
Text #1
ID : 4
Format : UTF-8
Codec ID : S_TEXT/UTF8
Codec ID/Info : UTF-8 Plain Text
Duration : 1 h 52 min
Bit rate : 74 b/s
Count of elements : 1183
Stream size : 61.4 KiB (0%)
Language : Russian
Default : No
Forced : No
Text #2
ID : 5
Format : UTF-8
Codec ID : S_TEXT/UTF8
Codec ID/Info : UTF-8 Plain Text
Duration : 1 h 54 min
Bit rate : 56 b/s
Count of elements : 1442
Stream size : 47.5 KiB (0%)
Language : Spanish
Default : No
Forced : No
Menu
00:00:00.000 : en:00:00:00.000
00:09:06.296 : en:00:09:06.296
00:17:22.750 : en:00:17:22.750
00:24:26.130 : en:00:24:26.130
00:30:44.843 : en:00:30:44.843
00:39:58.895 : en:00:39:58.895
00:45:13.710 : en:00:45:13.710
00:52:21.930 : en:00:52:21.930
01:04:19.522 : en:01:04:19.522
01:11:23.779 : en:01:11:23.779
01:25:56.902 : en:01:25:56.902
01:34:39.256 : en:01:34:39.256
01:48:56.697 : en:01:48:56.697
01:56:15.886 : en:01:56:15.886
02:00:22.912 : en:02:00:22.912

Скриншоты

 GOLD TORRENT! DOWNLOAD TRAFFIC DOES NOT CONSIDER! 
Torrent: Registered [ 2021-07-22 05:20 ]   · 2C17BD7085B77AF25BCB30A4FF1056982EA7D616

Download .torrent

Download

18 KB

Status: checked
Completed: 0 times
Size: 3.48 GB
Поделиться:
terms.php
[Profile] [PM]
Display posts:    
Reply to topic

Current time is: 27-Jul 11:00

All times are UTC + 3



You cannot post new topics in this forum
You cannot reply to topics in this forum
You cannot edit your posts in this forum
You cannot delete your posts in this forum
You cannot vote in polls in this forum
You cannot attach files in this forum
You can download files in this forum