Оккупация: миссия «Дождь» / Occupation: Rainfall (2020) BDRip 1080p от селезень | iTunes

Reply to topic
DL-List and Torrent activity [Update пиров]
Size:  9.17 GB   |    Registered:  8 days   |    Completed:  0 times
Seeders:  42  [  0 KB/s  ]   Leechers:  7  [  0 KB/s  ]   Show peers in full details
 
   
 
 
Author Message

admin ®

Gender: Male

Longevity: 3 years 10 months

Posts: 12744

Post 22-Jul-2021 04:27

[Quote]

Информация о фильме
Название: Оккупация: миссия «Дождь»
Оригинальное название: Occupation: Rainfall
Год выхода: 2020
Жанр: Фантастика, боевик
Режиссер: Люк Спарк
В ролях: Дэниэл Юинг, Темуэра Моррисон, Дэниэл Гиллис, Лоуренс Макор, Захари Гарред, Джет Трантер, Марк Коулз Смит, Тристан Гоу, Кен Жонг, Джейсон Айзекс

О фильме: Прошло два года после инопланетного вторжения. Пришельцам удалось уничтожить практически всё человечество, но Сидней ещё не повержен — выжившие и примкнувшие к ним инакомыслящие инопланетяне продолжают отчаянно сражаться, но их силы на исходе. Тем временем небольшая группа людей узнает о заговоре, который может положить конец войне.
Страна: Австралия
Студия: Occupation Two Productions
Продолжительность: 02:08:17
Перевод: Дублированный | iTunes
Качество: BDRip 1080p
Видео: MPEG-4 AVC, 1920x800, 9203 Kbit/s, 23.976 fps
Аудио #01: 48 kHz, AC3, 5.1, 384 Kbps | iTunes | RUS |
Аудио #02: 48 kHz, AC3, 5.1, 640 Kbps | Оригинал | ENG |
Субтитры: Русские (Forced, full), английские

Скриншоты

MI

General
Unique ID : 217845741762597744619015306953103840315 (0xA3E39050B9E648FFAE5AC41CC325143B)
Complete name : G:VideoOccupation.Rainfall.2020.BDRip.1080p.seleZen.mkv
Format : Matroska
Format version : Version 4
File size : 9.17 GiB
Duration : 2 h 8 min
Overall bit rate : 10.2 Mb/s
Movie name : Occupation Rainfall 2020 from seleZen
Encoded date : UTC 2021-07-21 03:02:56
Writing application : mkvmerge v53.0.0 ('Fool's Gold') 64-bit
Writing library : libebml v1.4.1 + libmatroska v1.6.2
Video
ID : 1
Format : AVC
Format/Info : Advanced Video Codec
Format profile : High@L4.1
Format settings : CABAC / 5 Ref Frames
Format settings, CABAC : Yes
Format settings, Reference : 5 frames
Codec ID : V_MPEG4/ISO/AVC
Duration : 2 h 8 min
Bit rate : 9 203 kb/s
Width : 1 920 pixels
Height : 800 pixels
Display aspect ratio : 2.40:1
Frame rate mode : Constant
Frame rate : 23.976 (24000/1001) FPS
Color space : YUV
Chroma subsampling : 4:2:0
Bit depth : 8 bits
Scan type : Progressive
Bits/(Pixel*Frame) : 0.250
Stream size : 8.25 GiB (90%)
Title : eckomega
Writing library : x264 core 155 r2917 0a84d98
Encoding settings : cabac=1 / ref=5 / deblock=1:-3:-3 / analyse=0x3:0x133 / me=umh / subme=10 / psy=1 / psy_rd=1.00:0.00 / mixed_ref=1 / me_range=32 / chroma_me=1 / trellis=2 / 8x8dct=1 / cqm=0 / deadzone=21,11 / fast_pskip=0 / chroma_qp_offset=-2 / threads=18 / lookahead_threads=4 / sliced_threads=0 / nr=0 / decimate=0 / interlaced=0 / bluray_compat=0 / constrained_intra=0 / bframes=16 / b_pyramid=2 / b_adapt=2 / b_bias=0 / direct=3 / weightb=1 / open_gop=0 / weightp=2 / keyint=240 / keyint_min=24 / scenecut=40 / intra_refresh=0 / rc_lookahead=60 / rc=crf / mbtree=0 / crf=17.0 / qcomp=0.60 / qpmin=0 / qpmax=69 / qpstep=4 / vbv_maxrate=62500 / vbv_bufsize=78125 / crf_max=0.0 / nal_hrd=none / filler=0 / ip_ratio=1.40 / pb_ratio=1.30 / aq=2:1.00
Language : English
Default : Yes
Forced : No
Color range : Limited
Color primaries : BT.709
Transfer characteristics : BT.709
Matrix coefficients : BT.709
Audio #1
ID : 2
Format : AC-3
Format/Info : Audio Coding 3
Commercial name : Dolby Digital
Codec ID : A_AC3
Duration : 2 h 8 min
Bit rate mode : Constant
Bit rate : 384 kb/s
Channel(s) : 6 channels
Channel layout : L R C LFE Ls Rs
Sampling rate : 48.0 kHz
Frame rate : 31.250 FPS (1536 SPF)
Compression mode : Lossy
Stream size : 352 MiB (4%)
Title : iTunes
Language : Russian
Service kind : Complete Main
Default : Yes
Forced : Yes
Audio #2
ID : 3
Format : AC-3
Format/Info : Audio Coding 3
Commercial name : Dolby Digital
Codec ID : A_AC3
Duration : 2 h 8 min
Bit rate mode : Constant
Bit rate : 640 kb/s
Channel(s) : 6 channels
Channel layout : L R C LFE Ls Rs
Sampling rate : 48.0 kHz
Frame rate : 31.250 FPS (1536 SPF)
Compression mode : Lossy
Stream size : 587 MiB (6%)
Title : Original
Language : English
Service kind : Complete Main
Default : No
Forced : No
Text #1
ID : 4
Format : UTF-8
Codec ID : S_TEXT/UTF8
Codec ID/Info : UTF-8 Plain Text
Duration : 22 s 646 ms
Bit rate : 69 b/s
Count of elements : 4
Stream size : 197 Bytes (0%)
Title : Forced
Language : Russian
Default : Yes
Forced : Yes
Text #2
ID : 5
Format : UTF-8
Codec ID : S_TEXT/UTF8
Codec ID/Info : UTF-8 Plain Text
Duration : 2 h 1 min
Bit rate : 66 b/s
Count of elements : 1581
Stream size : 58.6 KiB (0%)
Title : Full
Language : Russian
Default : No
Forced : No
Text #3
ID : 6
Format : UTF-8
Codec ID : S_TEXT/UTF8
Codec ID/Info : UTF-8 Plain Text
Duration : 2 h 1 min
Bit rate : 46 b/s
Count of elements : 1472
Stream size : 41.0 KiB (0%)
Title : Full
Language : English
Default : No
Forced : No
Menu
00:00:00.000 : en:Chapter 01
00:12:24.535 : en:Chapter 02
00:20:19.009 : en:Chapter 03
00:31:39.648 : en:Chapter 04
00:38:53.706 : en:Chapter 05
00:49:36.974 : en:Chapter 06
00:59:38.700 : en:Chapter 07
01:13:27.528 : en:Chapter 08
01:27:06.471 : en:Chapter 09
01:39:08.860 : en:Chapter 10
01:49:48.540 : en:Chapter 11
02:01:42.670 : en:Chapter 12
 GOLD TORRENT! DOWNLOAD TRAFFIC DOES NOT CONSIDER! 
Torrent: Registered [ 2021-07-22 04:27 ]   · 891B549EA7C6759ABE548CC084984A558FC35A72

Download .torrent

Download

13 KB

Status: checked
Completed: 0 times
Size: 9.17 GB
Поделиться:
terms.php
[Profile] [PM]
Display posts:    
Reply to topic

Current time is: 30-Jul 17:21

All times are UTC + 3



You cannot post new topics in this forum
You cannot reply to topics in this forum
You cannot edit your posts in this forum
You cannot delete your posts in this forum
You cannot vote in polls in this forum
You cannot attach files in this forum
You can download files in this forum