Конец фильма (2021) WEB-DL 1080p от EniaHD

Reply to topic
DL-List and Torrent activity [Update пиров]
Size:  4.14 GB   |    Registered:  9 days   |    Completed:  0 times
Seeders:  116  [  0 KB/s  ]   Leechers:  7  [  0 KB/s  ]   Show peers in full details
 
   
 
 
Author Message

admin ®

Gender: Male

Longevity: 3 years 8 months

Posts: 12013

Post 10-Jun-2021 21:56

[Quote]

Информация о фильме
Название: Конец фильма
Год выхода: 2021
Жанр: комедия
Режиссёр: Владимир Котт
В ролях: Валентин Самохин, Яна Троянова, Егор Бероев, Виктор Хориняк, Наталья Суркова, Лина Весёлкина, Мария Шумакова, Борис Каморзин, Анастасия Чернышова, Владимир Котт, Андрей Харыбин, Дмитрий Савельев, Лера Лахина
О фильме:
Режиссёр Митя сбегает со съёмочной площадки очередного телесериала. В этом ему помогает призрак Марчелло Мастроянни. Решение о побеге запускает цепочку событий с участием Митиных родных и близких, распутать которую сможет только ответ на вопрос о том, каким режиссером он хочет быть: великим, талантливым или просто нормальным.

Страна: Россия
Студия: КиноКластер
Продолжительность: 01:45:31
Перевод: Не требуется
Файл
Контейнер: MKV
Качество: WEB-DL 1080p | IVI
Видео: MPEG-4 (AVC), 1920х800 (2.40:1), 25 fps, ~ 5120 kbps, 0.133 bit/pixel
Аудио: AAC, 48 kHz, 6 ch, 512 Kbps

MediaInfo

General
Unique ID : 225344322631381880351569256303726802987 (0xA987BCE566058F9CBA55B70456E5B82B)
Complete name : Konets.filma.2021.1080p.IVI.WEB-DL.AAC5.1.H.264-EniaHD.mkv
Format : Matroska
Format version : Version 4
File size : 4.14 GiB
Duration : 1 h 45 min
Overall bit rate : 5 622 kb/s
Writing application : mkvmerge v57.0.0 ('Till The End') 64-bit
Writing library : libebml v1.4.2 + libmatroska v1.6.4
Video
ID : 1
Format : AVC
Format/Info : Advanced Video Codec
Format profile : High@L4
Format settings : CABAC / 4 Ref Frames
Format settings, CABAC : Yes
Format settings, Reference frames : 4 frames
Codec ID : V_MPEG4/ISO/AVC
Duration : 1 h 45 min
Bit rate : 5 120 kb/s
Width : 1 920 pixels
Height : 800 pixels
Display aspect ratio : 2.40:1
Frame rate mode : Constant
Frame rate : 25.000 FPS
Color space : YUV
Chroma subsampling : 4:2:0
Bit depth : 8 bits
Scan type : Progressive
Bits/(Pixel*Frame) : 0.133
Stream size : 3.76 GiB (91%)
Writing library : x264 core 152 r2854 e9a5903
Encoding settings : cabac=1 / ref=3 / deblock=1:0:0 / analyse=0x3:0x113 / me=hex / subme=7 / psy=1 / psy_rd=1.00:0.00 / mixed_ref=1 / me_range=16 / chroma_me=1 / trellis=1 / 8x8dct=1 / cqm=0 / deadzone=21,11 / fast_pskip=1 / chroma_qp_offset=-2 / threads=25 / lookahead_threads=4 / sliced_threads=0 / nr=0 / decimate=1 / interlaced=0 / bluray_compat=0 / constrained_intra=0 / bframes=6 / b_pyramid=2 / b_adapt=1 / b_bias=0 / direct=1 / weightb=1 / open_gop=0 / weightp=2 / keyint=50 / keyint_min=26 / scenecut=0 / intra_refresh=0 / rc_lookahead=40 / rc=2pass / mbtree=1 / bitrate=5120 / ratetol=1.0 / qcomp=0.60 / qpmin=0 / qpmax=69 / qpstep=4 / cplxblur=20.0 / qblur=0.5 / vbv_maxrate=7680 / vbv_bufsize=20480 / nal_hrd=none / filler=0 / ip_ratio=1.40 / aq=1:1.00
Default : Yes
Forced : No
Audio
ID : 2
Format : AAC LC
Format/Info : Advanced Audio Codec Low Complexity
Codec ID : A_AAC-2
Duration : 1 h 45 min
Bit rate : 512 kb/s
Channel(s) : 6 channels
Channel layout : C L R Ls Rs LFE
Sampling rate : 48.0 kHz
Frame rate : 46.875 FPS (1024 SPF)
Compression mode : Lossy
Stream size : 386 MiB (9%)
Language : Russian
Default : Yes
Forced : No

Скриншоты


 GOLD TORRENT! DOWNLOAD TRAFFIC DOES NOT CONSIDER! 
Torrent: Registered [ 2021-06-10 21:56 ]   · BE0662CF88EABBE82FBDE53252F4BB13A762DE39

Download .torrent

Download

22 KB

Status: checked
Completed: 0 times
Size: 4.14 GB
Поделиться:
terms.php
[Profile] [PM]
Display posts:    
Reply to topic

Current time is: 20-Jun 17:52

All times are UTC + 3



You cannot post new topics in this forum
You cannot reply to topics in this forum
You cannot edit your posts in this forum
You cannot delete your posts in this forum
You cannot vote in polls in this forum
You cannot attach files in this forum
You can download files in this forum