Райская бухта / Paradise Cove (2021) WEB-DL 1080p от селезень | iTunes

Reply to topic
DL-List and Torrent activity [Update пиров]
Size:  3.6 GB   |    Registered:  9 days   |    Completed:  0 times
Seeders:  186  [  0 KB/s  ]   Leechers:  35  [  0 KB/s  ]   Show peers in full details
 
   
 
 
Author Message

admin ®

Gender: Male

Longevity: 3 years 8 months

Posts: 12013

Post 10-Jun-2021 21:49

[Quote]

Информация о фильме
Название: Райская бухта
Оригинальное название: Paradise Cove
Год выхода: 2021
Жанр: Триллер
Режиссер: Мартин Гиги
В ролях: Тодд Гриннелл, Мена Сувари, Кристин Бауэр, Эдди Гоинс, Криста Аллен, Эдди Ривера, Рубен Гарфиас, Келси Коллинз, Карл Т. Райт

О фильме: Строительный подрядчик Нокс и его жена Трейси переезжают в Малибу, чтобы отремонтировать доставшийся им в наследство пляжный домик, под которым поселилась бездомная женщина. Вскоре между ней и супругами разгорается настоящая война.
Страна: США
Студия: Sunset Pictures, Thunder Studios
Продолжительность: 01:43:37
Перевод: Дублированный | iTunes
Качество: WEB-DL 1080p
Видео: MPEG-4 AVC, 1920x800, 4585 Kbit/s, 24.000 fps
Аудио: 48 kHz, AC3, 5.1, 384 Kbps | iTunes | RUS |
Субтитры: Отсутсвуют

Скриншоты

MI

General
Unique ID : 36442532567678160869637732142472925393 (0x1B6A9393AD9BAE7BFEA93612CE6690D1)
Complete name : F:VideoParadise.Cove.2021.WEB-DL.1080p.seleZen.mkv
Format : Matroska
Format version : Version 4
File size : 3.60 GiB
Duration : 1 h 43 min
Overall bit rate : 4 970 kb/s
Movie name : Paradise Cove 2021 from seleZen
Encoded date : UTC 2021-06-10 10:40:11
Writing application : mkvmerge v55.0.0 ('Waiting For Space') 64-bit
Writing library : libebml v1.4.2 + libmatroska v1.6.4
Video
ID : 1
Format : AVC
Format/Info : Advanced Video Codec
Format profile : High@L4
Format settings : CABAC / 5 Ref Frames
Format settings, CABAC : Yes
Format settings, Reference : 5 frames
Codec ID : V_MPEG4/ISO/AVC
Duration : 1 h 43 min
Bit rate : 4 585 kb/s
Width : 1 920 pixels
Height : 800 pixels
Display aspect ratio : 2.40:1
Frame rate mode : Constant
Frame rate : 24.000 FPS
Color space : YUV
Chroma subsampling : 4:2:0
Bit depth : 8 bits
Scan type : Progressive
Bits/(Pixel*Frame) : 0.124
Stream size : 3.32 GiB (92%)
Language : English
Default : Yes
Forced : No
Color range : Limited
Color primaries : BT.709
Transfer characteristics : BT.709
Matrix coefficients : BT.709
Audio
ID : 2
Format : AC-3
Format/Info : Audio Coding 3
Commercial name : Dolby Digital
Codec ID : A_AC3
Duration : 1 h 43 min
Bit rate mode : Constant
Bit rate : 384 kb/s
Channel(s) : 6 channels
Channel layout : L R C LFE Ls Rs
Sampling rate : 48.0 kHz
Frame rate : 31.250 FPS (1536 SPF)
Compression mode : Lossy
Stream size : 285 MiB (8%)
Title : iTunes
Language : Russian
Service kind : Complete Main
Default : Yes
Forced : No
Menu
00:00:00.000 : en:Глава 1
00:08:16.458 : en:Глава 2
00:17:20.499 : en:Глава 3
00:26:06.124 : en:Глава 4
00:34:34.624 : en:Глава 5
00:43:04.832 : en:Глава 6
00:51:48.832 : en:Глава 7
01:00:15.957 : en:Глава 8
01:08:22.082 : en:Глава 9
01:17:00.373 : en:Глава 10
01:25:14.248 : en:Глава 11
01:33:39.206 : en:Глава 12
 GOLD TORRENT! DOWNLOAD TRAFFIC DOES NOT CONSIDER! 
Torrent: Registered [ 2021-06-10 21:49 ]   · AED51EDCF09F049B3EF181F211978AF31767428A

Download .torrent

Download

73 KB

Status: checked
Completed: 0 times
Size: 3.6 GB
Поделиться:
terms.php
[Profile] [PM]
Display posts:    
Reply to topic

Current time is: 20-Jun 18:35

All times are UTC + 3



You cannot post new topics in this forum
You cannot reply to topics in this forum
You cannot edit your posts in this forum
You cannot delete your posts in this forum
You cannot vote in polls in this forum
You cannot attach files in this forum
You can download files in this forum