Эмпайр Стэйт / Empire State (Дито Монтиель / Dito Montiel) [2013, США, боевик, драма, BDRip-AVC] MVO + Sub Eng + Original Eng

Reply to topic
DL-List and Torrent activity
Size:  2.18 GB   |    Registered:  2 years 11 months   |    Completed:  0 times

Seeder not seen: Never

 
   
 
 
Author Message

admin ®

Gender: Male

Longevity: 3 years

Posts: 10018

Post 11-Oct-2017 23:49

[Quote]

Эмпайр СтэйтEmpire State«Based on a true story»
Страна: США
Жанр: боевик, драма
Год выпуска: 2013
Продолжительность: 01:34:20
Перевод: Профессиональный (многоголосый закадровый)
Субтитры: английские
Оригинальная аудиодорожка: английский
Режиссер: Дито Монтиель / Dito Montiel
В ролях: Лиам Хемсворт, Майкл Ангарано, Дуэйн Джонсон, Грегори Николас Вротсос, Джерри Феррара, Эмма Робертс, Майкл Рисполи, Пол Бен-Виктор, Шэрон Анджела, Крис, Диамантополос...
Описание: В этом триллере, основанном на реальных событиях, речь пойдет о произошедшем в 1982 году в Нью-Йорке ограблении инкассаторских бронеавтомобилей, которое на тот момент считалось крупнейшим в США.
Доп. информация:

Качество видео: BDRip-AVC |Эмпайр Стэйт / Empire State(2013) 1080p BD-Remux|
Формат видео: MKV
Видео: 1104x460 (2.40:1), 23.976 fps, XviD ~ 2406 kbps avg, 0.198 bit/pixel
Аудио: 48 kHz, Dolby AC3, 6 ch, 448 kbps, русский
Аудио 2: 48 kHz, Dolby AC3, 6 ch, 448 kbps, английский
Формат субтитров: softsub (SRT)
Доп. информация о субтитрах: отключаемые

MediaInfo

General
Unique ID : 180818839297610925224520003547266421646 (0x88087113FD3D470C8571BA6F0662138E)
Complete name : F:\Фильмы\Эмпайр Стэйт\Empair.Steyt.2012.P.BDRip-AVC.mkv
Format : Matroska
Format version : Version 4 / Version 2
File size : 2.18 GiB
Duration : 1h 34mn
Overall bit rate : 3 299 Kbps
Encoded date : UTC 2014-03-15 22:11:15
Writing application : mkvmerge v6.8.0 ('Theme for Great Cities') 64bit built on Mar 2 2014 21:34:26
Writing library : libebml v1.3.0 + libmatroska v1.4.1
Attachment : Yes
Video
ID : 1
Format : AVC
Format/Info : Advanced Video Codec
Format profile : High@L4.1
Format settings, CABAC : Yes
Format settings, ReFrames : 6 frames
Codec ID : V_MPEG4/ISO/AVC
Duration : 1h 34mn
Bit rate : 2 406 Kbps
Width : 1 104 pixels
Height : 460 pixels
Display aspect ratio : 2.40:1
Frame rate mode : Constant
Frame rate : 23.976 fps
Color space : YUV
Chroma subsampling : 4:2:0
Bit depth : 8 bits
Scan type : Progressive
Bits/(Pixel*Frame) : 0.198
Stream size : 1.54 GiB (71%)
Writing library : x264 core 138 r2356 a1d3d17
Encoding settings : cabac=1 / ref=6 / deblock=1:-3:-2 / analyse=0x3:0x113 / me=umh / subme=10 / psy=1 / psy_rd=1.00:0.05 / mixed_ref=1 / me_range=32 / chroma_me=1 / trellis=2 / 8x8dct=1 / cqm=0 / deadzone=21,11 / fast_pskip=0 / chroma_qp_offset=-3 / threads=9 / lookahead_threads=1 / sliced_threads=0 / nr=0 / decimate=0 / interlaced=0 / bluray_compat=0 / constrained_intra=0 / bframes=8 / b_pyramid=2 / b_adapt=2 / b_bias=0 / direct=3 / weightb=1 / open_gop=0 / weightp=2 / keyint=240 / keyint_min=24 / scenecut=40 / intra_refresh=0 / rc_lookahead=40 / rc=2pass / mbtree=1 / bitrate=2406 / ratetol=1.0 / qcomp=0.60 / qpmin=0 / qpmax=69 / qpstep=4 / cplxblur=20.0 / qblur=0.5 / ip_ratio=1.40 / aq=1:1.00
Language : English
Default : Yes
Forced : No
Audio #1
ID : 2
Format : AC-3
Format/Info : Audio Coding 3
Mode extension : CM (complete main)
Format settings, Endianness : Big
Codec ID : A_AC3
Duration : 1h 34mn
Bit rate mode : Constant
Bit rate : 448 Kbps
Channel(s) : 6 channels
Channel positions : Front: L C R, Side: L R, LFE
Sampling rate : 48.0 KHz
Bit depth : 16 bits
Compression mode : Lossy
Stream size : 303 MiB (14%)
Title : MVO
Language : Russian
Default : Yes
Forced : No
Audio #2
ID : 3
Format : AC-3
Format/Info : Audio Coding 3
Mode extension : CM (complete main)
Format settings, Endianness : Big
Codec ID : A_AC3
Duration : 1h 34mn
Bit rate mode : Constant
Bit rate : 448 Kbps
Channel(s) : 6 channels
Channel positions : Front: L C R, Side: L R, LFE
Sampling rate : 48.0 KHz
Bit depth : 16 bits
Compression mode : Lossy
Stream size : 303 MiB (14%)
Language : English
Default : No
Forced : No
Text #1
ID : 4
Format : UTF-8
Codec ID : S_TEXT/UTF8
Codec ID/Info : UTF-8 Plain Text
Title : full
Language : English
Default : No
Forced : No
Text #2
ID : 5
Format : UTF-8
Codec ID : S_TEXT/UTF8
Codec ID/Info : UTF-8 Plain Text
Title : SDH
Language : English
Default : No
Forced : No
Menu
00:00:00.000 : :Chapter 01
00:06:06.157 : :Chapter 02
00:13:03.032 : :Chapter 03
00:19:22.995 : :Chapter 04
00:22:39.775 : :Chapter 05
00:27:36.071 : :Chapter 06
00:33:38.766 : :Chapter 07
00:39:55.017 : :Chapter 08
00:46:00.382 : :Chapter 09
00:52:26.143 : :Chapter 10
00:59:47.375 : :Chapter 11
01:06:38.703 : :Chapter 12
01:12:29.887 : :Chapter 13
01:20:12.808 : :Chapter 14
01:25:26.746 : :Chapter 15
01:29:23.900 : :Chapter 16

Скриншот c названием фильма

Скриншоты

 GOLD TORRENT! DOWNLOAD TRAFFIC DOES NOT CONSIDER! 
Torrent: Registered [ 2017-10-11 23:49 ]   · 44F9C23CB21E1948F7FF4AEFC260AF684086776B

Download .torrent

Download

12 KB

Status: checked
Completed: 0 times
Size: 2.18 GB
Поделиться:
terms.php
[Profile] [PM]
Display posts:    
Reply to topic

Current time is: 29-Sep 09:40

All times are UTC + 3



You cannot post new topics in this forum
You cannot reply to topics in this forum
You cannot edit your posts in this forum
You cannot delete your posts in this forum
You cannot vote in polls in this forum
You cannot attach files in this forum
You can download files in this forum