Вампирская сага / Нация вампиров / Bloodthirst / Vampyre Nation (Тодор Чапканов / Todor Chapkanov) [2012, США, Фантастика,боевик,триллер, HDRip] MVO

Reply to topic
DL-List and Torrent activity
Size:  1.37 GB   |    Registered:  3 years   |    Completed:  0 times

Seeder not seen: Never

 
   
 
 
Author Message

admin ®

Gender: Male

Longevity: 3 years 1 month

Posts: 10044

Post 11-Oct-2017 23:44

[Quote]

Вампирская сага / Нация вампировBloodthirst / Vampyre Nation
Страна: США
Жанр: Фантастика,боевик,триллер
Год выпуска: 2012
Продолжительность: 01:21:57
Перевод: Профессиональный (многоголосый закадровый)
Субтитры: нет
Оригинальная аудиодорожка: нет
Режиссер: Тодор Чапканов / Todor Chapkanov
В ролях: Бен Ламберт (Ben Lambert), Ивэн Бэйли (Ewan Bailey), Клаудия Бассолс (Claudia Bassols), Роурк Критчлоу (Roark Critchlow), Нил Джексон (Neil Jackson), Илиана Лазарова (Iliana Lazarova), Димитар Огринов (Dimitar Ougrinov), Эндрю Ли Поттс (Andrew Lee Potts)
Описание: Бухарест, Румыния. Не слишком отдаленное будущее, но полностью другой город. Население сокращается. Население вампиров, тем временем, растет взрывными темпами. Появившись из теней десятилетием ранее, вампиры теперь живут не прячась среди людей, поскольку сомнительный мир существует между ними. Мир сделал возможным введение синтетического заменителя крови, созданного румынским правительством, делая традиционного вампира, питающегося, и охотящегося на людей, лучше остальных. Но даже в этом случае, это не мир, которым все полностью довольны…
Доп. информация:
Релиз группы:
:
Качество видео: HDRip (исходник неизвестен)
Формат видео: AVI
Видео: 720 x 400 (16:9) at 25.000 fps XviD at 1996 Кбит/сек
Аудио: AC3, 6 ch, 384 kbps, 48,0 КГц)

MediaInfo

Полное имя : C:\Фильмы\Вампирская сага\Vampirskaja.saga.2012..НDRip.by-IVAN@190282.avi
Формат : AVI
Формат/Информация : Audio Video Interleave
Размер файла : 1,37 Гбайт
Продолжительность : 1 ч. 21 м.
Общий поток : 2390 Кбит/сек
Название фильма : Vampirskaja.saga.2012.P.DVDRip.IRONCLUB
Режиссёр : IRONCLUB
Жанр : Action | Horror | Sci-Fi
Программа кодирования : VirtualDubMod 1.5.10.3 | www.virtualdub-fr.org || (build 2550/release)
Формат оригинала/Имя : Movie
Идентификатор : 0
Формат : MPEG-4 Visual
Профиль формата : Advanced Simple@L5
Параметр BVOP формата : 1
Параметр QPel формата : Нет
Параметр GMC формата : Без точки перехода
Параметр матрицы формата : Выборочная
Идентификатор кодека : XVID
Идентификатор кодека/Подсказка : XviD
Продолжительность : 1 ч. 21 м.
Битрейт : 1996 Кбит/сек
Ширина : 720 пикселей
Высота : 400 пикселей
Соотношение сторон : 16:9
Частота кадров : 25,000 кадров/сек
Цветовое пространство : YUV
Субдискретизация насыщенности : 4:2:0
Битовая глубина : 8 бит
Тип развёртки : Прогрессивная
Метод сжатия : С потерями
Бит/(Пиксели*Кадры) : 0.277
Размер потока : 1,14 Гбайт (84%)
Библиотека кодирования : XviD 1.2.1 (UTC 2008-12-04)
Идентификатор : 1
Формат : AC-3
Формат/Информация : Audio Coding 3
Расширение режима : CM (complete main)
Параметр Endianness формата : Big
Идентификатор кодека : 2000
Продолжительность : 1 ч. 21 м.
Вид битрейта : Постоянный
Битрейт : 384 Кбит/сек
Каналы : 6 каналов
Расположение каналов : Front: L C R, Side: L R, LFE
Частота : 48,0 КГц
Битовая глубина : 16 бит
Метод сжатия : С потерями
Размер потока : 225 Мбайт (16%)
Выравнивание : Разделение по промежуткам
Продолжительность промежутка : 40 мс. (1,00 видеокадр)
Время предзагрузки промежутка : 500 мс.

Скриншот c названием фильма

Скриншоты

 GOLD TORRENT! DOWNLOAD TRAFFIC DOES NOT CONSIDER! 
Torrent: Registered [ 2017-10-11 23:44 ]   · A9B237444715C3FBD9F2D1B84D7F557F1B2CD2CE

Download .torrent

Download

14 KB

Status: checked
Completed: 0 times
Size: 1.37 GB
Поделиться:
terms.php
[Profile] [PM]

Guest

Gender: Unknown

Post 28-Aug-2019 11:00 (after 1 year 10 months)

[Quote]

Качество фильма -нормальное.
Сам фильм не понравился.
Идея фильма простая и понятная, но реализовано с большим количеством тупых сцен, бредовыми диалогами главных героев, и и конечно с обилием крови, но это - закон жанра подобных фильмов.
Не являюсь поклонником подобных гениальных шедевров, хотя конечно многим такое нравится.
На мой взгляд - на 1 из 10.
.
 
Display posts:    
Reply to topic

Current time is: 28-Oct 02:57

All times are UTC + 3



You cannot post new topics in this forum
You cannot reply to topics in this forum
You cannot edit your posts in this forum
You cannot delete your posts in this forum
You cannot vote in polls in this forum
You cannot attach files in this forum
You can download files in this forum